Results 1 to 1 of 1
  1. #1
    dR Contributor www.desirulez.net
    Join Date
    Sep 2009
    Posts
    306

    Default I, Me aur Main 2013 Audio Cleaned DVDSCREENER XviD 2CD 1/3 DDR

    Follow us on Social Media







    I, Me aur Main 2013 Audio Cleaned DVDSCREENER XviD 2CD 1/3 DDR


    Cover




    Screen






    Info -

    General


    Format : AVI
    Format/Info : Audio Video Interleave
    File size : 1.45 GiB
    Duration : 1h 40mn
    Overall bit rate : 2 062 Kbps
    Writing application : VirtualDubMod 1.5.10.2 (build 2540/release)
    Writing library : VirtualDubMod build 2540/release

    Video
    ID : 0
    Format : MPEG-4 Visual
    Format profile : Advanced [email protected]
    Format settings, BVOP : Yes
    Format settings, QPel : No
    Format settings, GMC : No warppoints
    Format settings, Matrix : Default (MPEG)
    Codec ID : XVID
    Codec ID/Hint : XviD
    Duration : 1h 40mn
    Bit rate : 1 829 Kbps
    Width : 720 pixels
    Height : 272 pixels
    Display aspect ratio : 2.647
    Frame rate : 23.976 fps
    Color space : YUV
    Chroma subsampling : 4:2:0
    Bit depth : 8 bits
    Scan type : Progressive
    Bits/(Pixel*Frame) : 0.389
    Stream size : 1.29 GiB (89%)
    Writing library : XviD 1.2.1 (UTC 2008-12-04)

    Audio
    ID : 1
    Format : AC-3
    Format/Info : Audio Coding 3
    Mode extension : CM (complete main)
    Codec ID : 2000
    Duration : 1h 40mn
    Bit rate mode : Constant
    Bit rate : 224 Kbps
    Channel(s) : 2 channels
    Channel positions : Front: L R
    Sampling rate : 48.0 KHz
    Bit depth : 16 bits
    Stream size : 161 MiB (11%)
    Alignment : Split accross interleaves
    Interleave, duration : 42 ms (1.00 video frame)
    Interleave, preload duration : 500 ms



    http://www.imdb.com/title/tt2064816/

    I, Me Aur Main Cast & Crew:

    Banner
    Reliance Entertainment
    Rose Movies
    Pollen Entertainment

    Status
    Released

    Release Date
    1 Mar 2013

    Genre
    Romance

    Producer
    Goldie Behl
    Shrishti Arya
    John Abraham

    Star Cast
    John Abraham.... Ishaan
    Chitrangda Singh.... Anushka
    Prachi Desai.... Gauri
    Zarina Wahab.... Ishaan's Mother
    Mini Mathur.... Shivani
    Raima Sen.... Beena
    Sameer Soni

    Story / Writers
    Devika Bhagat

    Choreographers
    Ahmed Khan

    Costume Designers
    Priyanka Mundada

    Censor Details:

    Censor Dates
    21 Feb 2013

    Reels
    Not Available.

    Length in metres
    0.0

    Music Director

    Sachin
    Jigar
    Raghav Sachar
    Gourav Dasgupta
    Falak Shabir

    Color
    C
    Language
    Hindi
    Director

    Kapil Sharma 1

    Singers

    Shaan
    Neeraj Shridhar
    Anushka Manchanda
    Falak Shabir
    Abhishek Nailwal
    Monali Thakur
    Neha Bhasin

    Lyricist

    Mayur Puri
    Kumaar
    Manthan
    Neelesh Misra
    Prashant Ingole
    Kausar Munir

    Editor

    Ranjeet Bahadur

    Cinematography

    Himman Dhamija

    Shooting Location(City & Country)
    India

    Sound
    Tarun Bhandari

    Music Company
    T-Series


    <><><><><> DOWNLOAD LINKS <><><><><>



    Code:
     
    
    
    (((((((( Rapidgator ))))))))
    
    
    http://rapidgator.net/file/82283290/I.Me.aur.Main.2013.Audio.Cleaned.DVDSCREENER.XviD.2CD.RRG.DADA.avi.html
    
    Sample 
    
    
    http://rapidgator.net/file/82276655/smpl-I.Me.aur.Main.2013.Audio.Cleaned.DVDSCREENER.XviD.2CD.RRG.DADA..avi.html
    http://pastebin.com/WNrzEhqg

    Alt Links

    http://tny.cz/b0253a67


 

 

Posting Permissions

  • You may not post new threads
  • You may not post replies
  • You may not post attachments
  • You may not edit your posts
  •