Results 1 to 1 of 1
  1. #1
    dR Rockers www.desirulez.net
    Join Date
    Aug 2011
    Posts
    5,859

    Cool Bhoot Returns (2012) - 720p - DVDRip - x264 - 6Ch - [EXD Exclusive]

    Follow us on Social Media












    Code:
    Rip Information
    
    Format                                   : Matroska
    Format version                           : Version 4 / Version 2
    File size                                : 1.40 GiB
    Duration                                 : 1h 24mn
    Overall bit rate                         : 2 369 Kbps
    Movie name                               : Bhoot Returns (2012)[email protected] [EXD Exclusive]
    
    
    
    Video
    
    Format                                   : AVC
    Format/Info                              : Advanced Video Codec
    Format profile                           : [email protected]
    Format settings, CABAC                   : Yes
    Format settings, ReFrames                : 4 frames
    Codec ID                                 : V_MPEG4/ISO/AVC
    Duration                                 : 1h 24mn
    Bit rate                                 : 1 919 Kbps
    Width                                    : 1 280 pixels
    Height                                   : 588 pixels
    Display aspect ratio                     : 2.2:1
    Frame rate mode                          : Constant
    Frame rate                               : 29.970 fps
    Color space                              : YUV
    Chroma subsampling                       : 4:2:0
    Bit depth                                : 8 bits
    Scan type                                : Progressive
    Bits/(Pixel*Frame)                       : 0.085
    Stream size                              : 1.11 GiB (79%)
    Title                                    : [email protected]
    Writing library                          : x264 core 129 r2245 bc13772
    
    
    
    Audio
    
    Format                                   : AC-3
    Format/Info                              : Audio Coding 3
    Mode extension                           : CM (complete main)
    Format settings, Endianness              : Big
    Codec ID                                 : A_AC3
    Duration                                 : 1h 24mn
    Bit rate mode                            : Constant
    Bit rate                                 : 448 Kbps
    Channel(s)                               : 6 channels
    Channel positions                        : Front: L C R, Side: L R, LFE
    Sampling rate                            : 48.0 KHz
    Bit depth                                : 16 bits
    Compression mode                         : Lossy
    Stream size                              : 271 MiB (19%)
    Title                                    : [email protected]
    Language                                 : Hindi
    Default                                  : Yes













    SINGLE DIRECT FAST LINKS

    Code:
    http://lumfile.com/i923gmhl90tl/Bhoot.Returns.(2012).[email protected][EXD.Exclusive].mkv.html
    http://lumfile.com/eo2ocvagw0km/Bhoot.Returns.(2012).[email protected][EXD.Exclusive].srt.html
    Code:
    http://extabit.com/file/2ducnuil1hjjn/Bhoot.Returns.(2012).[email protected][EXD.Exclusive].mkv
    http://extabit.com/file/2ducnuil1hpv7/Bhoot.Returns.(2012).[email protected][EXD.Exclusive].srt

 

 

Posting Permissions

  • You may not post new threads
  • You may not post replies
  • You may not post attachments
  • You may not edit your posts
  •