Results 1 to 1 of 1
  1. #1

    Cool Bhoot Returns (2012) - 720p - DVDRip - X264 - Subs - 6Ch [EXD Exclusive]

    Follow us on Social Media













    Format : Matroska
    Format version : Version 4 / Version 2
    File size : 1.40 GiB
    Duration : 1h 24mn
    Overall bit rate : 2 369 Kbps
    Movie name : Bhoot Returns (2012)[email protected] [EXD Exclusive]

    Video

    Format : AVC
    Format/Info : Advanced Video Codec
    Format profile : [email protected]
    Format settings, CABAC : Yes
    Format settings, ReFrames : 4 frames
    Codec ID : V_MPEG4/ISO/AVC
    Duration : 1h 24mn
    Bit rate : 1 919 Kbps
    Width : 1 280 pixels
    Height : 588 pixels
    Display aspect ratio : 2.2:1
    Frame rate mode : Constant
    Frame rate : 29.970 fps
    Color space : YUV
    Chroma subsampling : 4:2:0
    Bit depth : 8 bits
    Scan type : Progressive
    Bits/(Pixel*Frame) : 0.085
    Stream size : 1.11 GiB (79%)
    Title : [email protected]
    Writing library : x264 core 129 r2245 bc13772

    Audio

    Format : AC-3
    Format/Info : Audio Coding 3
    Mode extension : CM (complete main)
    Format settings, Endianness : Big
    Codec ID : A_AC3
    Duration : 1h 24mn
    Bit rate mode : Constant
    Bit rate : 448 Kbps
    Channel(s) : 6 channels
    Channel positions : Front: L C R, Side: L R, LFE
    Sampling rate : 48.0 KHz
    Bit depth : 16 bits
    Compression mode : Lossy
    Stream size : 271 MiB (19%)
    Title : [email protected]
    Language : Hindi
    Default : Yes


    Code:
    http://filegag.com/0ztmf9fdalhp
    http://filegag.com/xyn3qj4k6nck
    
    Subs:
    http://filegag.com/f5rfdpwll492
    Code:
    http://ul.to/yzkl1xtf
    http://ul.to/cuzu55oc
    
    Subs:
    http://ul.to/gtke7atr
    Code:
    http://rapidgator.net/file/82250815/Bhoot_Returns_(2012)[email protected]_[EXD_Exclusive].mkv.html
    
    Subs:
    http://rapidgator.net/file/82249472/Bhoot_Returns_(2012)[email protected]_[EXD_Exclusive].srt.html

 

 

Posting Permissions

  • You may not post new threads
  • You may not post replies
  • You may not post attachments
  • You may not edit your posts
  •