Results 1 to 1 of 1
  1. #1
    dR Rockers www.desirulez.net
    Join Date
    Aug 2011
    Posts
    5,859

    Cool Life Of Pi (2012) - 720p - WebRip - x264 - Dual Audio [English-Hindi] [Team ExD]

    Follow us on Social Media















    Code:
    Format                                   : Matroska
    Format version                           : Version 2
    File size                                : 972 MiB
    Duration                                 : 2h 7mn
    Overall bit rate                         : 1 067 Kbps
    Movie name                               : Life Of Pi (2012) 720p x264 Web Rip x264 Dual Audio [English - Hindi] [email protected]= [ExDT]
    
    
    Video
    ID                                       : 1
    Format                                   : AVC
    Format/Info                              : Advanced Video Codec
    Format profile                           : [email protected]
    Format settings, CABAC                   : Yes
    Format settings, ReFrames                : 4 frames
    Muxing mode                              : Header stripping
    Codec ID                                 : V_MPEG4/ISO/AVC
    Duration                                 : 2h 7mn
    Bit rate                                 : 822 Kbps
    Width                                    : 1 280 pixels
    Height                                   : 688 pixels
    Display aspect ratio                     : 1.85:1
    Frame rate mode                          : Constant
    Frame rate                               : 23.976 fps
    
    
    Audio #1
    ID                                       : 2
    Format                                   : AC-3
    Format/Info                              : Audio Coding 3
    Mode extension                           : CM (complete main)
    Format settings, Endianness              : Big
    Muxing mode                              : Header stripping
    Codec ID                                 : A_AC3
    Duration                                 : 2h 7mn
    Bit rate mode                            : Constant
    Bit rate                                 : 128 Kbps
    Channel(s)                               : 2 channels
    Channel positions                        : Front: L R
    Sampling rate                            : 48.0 KHz
    Bit depth                                : 16 bits
    Compression mode                         : Lossy
    Stream size                              : 117 MiB (12%)
    Title                                    : [email protected]=
    Language                                 : English
    Default                                  : No
    Forced                                   : No
    
    Audio #2
    ID                                       : 3
    Format                                   : AC-3
    Format/Info                              : Audio Coding 3
    Mode extension                           : CM (complete main)
    Format settings, Endianness              : Big
    Muxing mode                              : Header stripping
    Codec ID                                 : A_AC3
    Duration                                 : 2h 7mn
    Bit rate mode                            : Constant
    Bit rate                                 : 128 Kbps
    Channel(s)                               : 2 channels
    Channel positions                        : Front: L R
    Sampling rate                            : 44.1 KHz
    Bit depth                                : 16 bits
    Compression mode                         : Lossy
    Delay relative to video                  : 1s 14ms
    Stream size                              : 117 MiB (12%)
    Title                                    : [email protected]=
    Language                                 : Hindi
    Default                                  : Yes
    Forced                                   : No








    SINGLE DIRECT FAST LINKS
    Code:
    http://extabit.com/file/2ducnjfjvgdx5/Life.Of.Pi.{2012}.720p.Web.Rip.x264.Dual.Audio.[English.Hindi][Team.ExD].mkv

    Code:
    http://lumfile.com/ss0wdtr00zcc/Life.Of.Pi.{2012}.720p.Web.Rip.x264.Dual.Audio.[English.Hindi][Team.ExD].mkv.html


 

 

Posting Permissions

  • You may not post new threads
  • You may not post replies
  • You may not post attachments
  • You may not edit your posts
  •