Results 1 to 1 of 1
  1. #1
    Hot Member www.desirulez.net
    Join Date
    Feb 2013
    Posts
    1,015

    Default Zindagi Ek Juaa 1992 DVDRIP [Taimoor] 1.5 GB

    Follow us on Social Media





    Zindagi Ek Juaa 1992 DVDRIP [Taimoor] 1.5 GB



    General
    Complete name :Zindagi Ek Juaa 1992 DVDRIP [Taimoor].avi
    Format : AVI
    Format/Info : Audio Video Interleave
    Format profile : OpenDML
    Format settings : rec
    File size : 1.45 GiB
    Duration : 2h 55mn
    Overall bit rate : 1 186 Kbps
    Writing application : AVI-Mux GUI 1.17.8.3, Feb 16 201019:42:50


    Video
    ID : 0
    Format : MPEG-4 Visual
    Format profile : Advanced [email protected]
    Format settings, BVOP : 2
    Format settings, QPel : No
    Format settings, GMC : No warppoints
    Format settings, Matrix : Default (H.263)
    Codec ID : XVID
    Codec ID/Hint : XviD
    Duration : 2h 55mn
    Bit rate : 957 Kbps
    Width : 672 pixels
    Height : 332 pixels
    Display aspect ratio : 2.024
    Frame rate : 23.976 fps
    Color space : YUV
    Chroma subsampling : 4:2:0
    Bit depth : 8 bits
    Scan type : Progressive
    Compression mode : Lossy
    Bits/(Pixel*Frame) : 0.179
    Stream size : 1.17 GiB (81%)
    Writing library : XviD 1.2.1 (UTC 2008-12-04


    Audio
    ID : 1
    Format : AC-3
    Format/Info : Audio Coding 3
    Mode extension : CM (complete main)
    Format settings, Endianness : Big
    Codec ID : 2000
    Duration : 2h 55mn
    Bit rate mode : Constant
    Bit rate : 224 Kbps
    Channel(s) : 2 channels
    Channel positions : Front: L R
    Sampling rate : 48.0 KHz
    Bit depth : 16 bits
    Compression mode : Lossy
    Stream size : 280 MiB (19%)
    Alignment : Aligned on interleaves
    Interleave, duration : 64 ms (1.53 video frames)
    Interleave, preload duration : 192 ms












    Code:
    http://uploaded.net/file/uz783fc7/Zindagi%20Juaa%20BY%20SM.avi
    Code:
    http://lumfile.com/hafgzi76xddf/_Zindagi_Ek_Juaa_BY_SM.avi.html
    Code:
    http://180upload.com/xfss2x60gbo9
    Code:
    http://www.uploadcore.com/jh3t21r8v2nl

 

 

Posting Permissions

  • You may not post new threads
  • You may not post replies
  • You may not post attachments
  • You may not edit your posts
  •