Results 1 to 1 of 1
  1. #1
    dR Rockers www.desirulez.net
    Join Date
    Aug 2011
    Posts
    5,859

    Cool Zilla Ghaziabad (2013) 480p Xvid DVDScr AC3 1GB Rip [Team EXD][John Rip]

    Follow us on Social Media












    Code:
    Format : AVI
    Format/Info : Audio Video Interleave
    File size : 1.00 GiB
    Duration : 2h 25mn
    Overall bit rate : 988 Kbps
    
    Video
    ID : 0
    Format : MPEG-4 Visual
    Format profile : Advanced [email protected]
    Format settings, BVOP : 2
    Format settings, QPel : No
    Format settings, GMC : No warppoints
    Format settings, Matrix : Default (H.263)
    Codec ID : XVID
    Codec ID/Hint : XviD
    Duration : 2h 25mn
    Bit rate : 853 Kbps
    Width : 720 pixels
    Height : 296 pixels
    Display aspect ratio : 2.40:1
    Frame rate : 23.976 fps
    Color space : YUV
    Chroma subsampling : 4:2:0
    Bit depth : 8 bits
    Scan type : Progressive
    Compression mode : Lossy
    Bits/(Pixel*Frame) : 0.167
    Stream size : 886 MiB (86%)
    Writing library : XviD 1.2.1 (UTC 2008-12-04)
    
    Audio
    ID : 1
    Format : AC-3
    Format/Info : Audio Coding 3
    Mode extension : CM (complete main)
    Format settings, Endianness : Big
    Codec ID : 2000
    Duration : 2h 25mn
    Bit rate mode : Constant
    Bit rate : 128 Kbps
    Channel(s) : 2 channels
    Channel positions : Front: L R
    Sampling rate : 48.0 KHz
    Bit depth : 16 bits
    Compression mode : Lossy
    Stream size : 133 MiB (13%)
    Alignment : Aligned on interleaves
    Interleave, duration : 64 ms (1.53 video frames)
    Interleave, preload duration : 192 ms
    Title : rip T80 2_0ch 192Kbps DELAY 0ms_new












    SINGLE DIRECT FAST LINKS


    Code:
    http://lumfile.com/8awepprbv1a8/Zilla.Ghaziabad.(2013).480p.Xvid.DVDScr.AC3.1GB.Rip.[Team.EXD][John.Rip].avi.html
    Code:
    http://extabit.com/file/2ducnjf1otl1p/Zilla.Ghaziabad.(2013).480p.Xvid.DVDScr.AC3.1GB.Rip.[Team.EXD][John.Rip].avi

 

 

Posting Permissions

  • You may not post new threads
  • You may not post replies
  • You may not post attachments
  • You may not edit your posts
  •