Results 1 to 1 of 1
  1. #1

    Cool Table No. 21 (2013) - DvdRip - XviD - 5.1CH - MSubs - 1CD [Team Jaffa]

    Follow us on Social Media








    General
    Format : AVI
    Format/Info : Audio Video Interleave
    File size : 698 MiB
    Duration : 1h 46mn
    Overall bit rate : 918 Kbps

    Video
    ID : 0
    Format : MPEG-4 Visual
    Format profile : Advanced [email protected]
    Format settings, BVOP : 2
    Format settings, QPel : No
    Format settings, GMC : No warppoints
    Format settings, Matrix : Default (H.263)
    Codec ID : XVID
    Codec ID/Hint : XviD
    Duration : 1h 46mn
    Bit rate : 718 Kbps
    Width : 624 pixels
    Height : 272 pixels
    Display aspect ratio : 2.25:1
    Frame rate : 23.976 fps
    Color space : YUV
    Chroma subsampling : 4:2:0
    Bit depth : 8 bits
    Scan type : Progressive
    Compression mode : Lossy
    Bits/(Pixel*Frame) : 0.177
    Stream size : 546 MiB (78%)
    Writing library : XviD 1.2.1 (UTC 2008-12-04)

    Audio
    ID : 1
    Format : AC-3
    Format/Info : Audio Coding 3
    Mode extension : CM (complete main)
    Format settings, Endianness : Big
    Codec ID : 2000
    Duration : 1h 46mn
    Bit rate mode : Constant
    Bit rate : 192 Kbps
    Channel(s) : 6 channels
    Channel positions : Front: L C R, Side: L R, LFE
    Sampling rate : 48.0 KHz
    Bit depth : 16 bits
    Compression mode : Lossy
    Stream size : 146 MiB (21%)
    Alignment : Aligned on interleaves
    Interleave, duration : 64 ms (1.53 video frames)
    Interleave, preload duration : 192 ms
    Title : AudioFile_80_new

    Subs: English And Arabic


















    Code:
    http://filegag.com/twqr9pztxrrw
    
    Subs:
    http://filegag.com/0jsbywhfbbwl
    Code:
    http://ul.to/bl448da4
    
    Subs:
    http://ul.to/3tp8yngn
    Code:
    http://datacloud.to/download/3be04604/table-no-21-2013-dvdrip-xvid-5-1ch-msubs-1cd-team-jaffa-avi
    
    Subs:
    http://datacloud.to/download/18fd0d3dc/table-no-21-2013-dvdrip-xvid-5-1ch-msubs-1cd-team-jaffa-rar
    Code:
    http://uploking.com/file/w01Gu2/table-no.-21-2013-dvdrip-xvid-5.1ch-msubs-1cd-team-jaffa.avi
    
    Subs:
    http://uploking.com/file/_yw9sPR/table-no.-21-2013-dvdrip-xvid-5.1ch-msubs-1cd-team-jaffa.rar

 

 

Posting Permissions

  • You may not post new threads
  • You may not post replies
  • You may not post attachments
  • You may not edit your posts
  •