Results 1 to 1 of 1
  1. #1
    dR Contributor www.desirulez.net
    Join Date
    Mar 2010
    Posts
    2,245

    Default Deewana Main Deewana (2013) (Hindi) 720p DVDDRip x264 ESubs 5.1CH [Team Jaffa]

    Follow us on Social Media





    Deewana Main Deewana (2013) (Hindi) 720p DVDDRip x264 ESubs 5.1CH [Team Jaffa]










    Format : Matroska
    Format version : Version 4 / Version 2
    File size : 2.00 GiB
    Duration : 1h 52mn
    Overall bit rate : 2 552 Kbps
    Writing application : mkvmerge v6.0.0 ('Coming Up For Air')
    Writing library : libebml v1.3.0 + libmatroska v1.4.0

    Video
    ID : 1
    Format : AVC
    Format/Info : Advanced Video Codec
    Format profile : [email protected]
    Format settings, CABAC : Yes
    Format settings, ReFrames : 4 frames
    Codec ID : V_MPEG4/ISO/AVC
    Duration : 1h 52mn
    Bit rate : 2 100 Kbps
    Width : 1 280 pixels
    Height : 544 pixels
    Display aspect ratio : 2.35:1
    Frame rate mode : Constant
    Frame rate : 23.976 fps
    Color space : YUV
    Chroma subsampling : 4:2:0
    Bit depth : 8 bits
    Scan type : Progressive
    Bits/(Pixel*Frame) : 0.126
    Stream size : 1.61 GiB (80%)
    Writing library : x264 core 129 r2245 bc13772
    Language : English
    Default : Yes
    Forced : No

    Audio
    ID : 2
    Format : AC-3
    Format/Info : Audio Coding 3
    Mode extension : CM (complete main)
    Format settings, Endianness : Big
    Codec ID : A_AC3
    Duration : 1h 52mn
    Bit rate mode : Constant
    Bit rate : 448 Kbps
    Channel(s) : 6 channels
    Channel positions : Front: L C R, Side: L R, LFE
    Sampling rate : 48.0 KHz
    Bit depth : 16 bits
    Compression mode : Lossy
    Stream size : 359 MiB (18%)
    Default : Yes
    Forced : No

    Text
    ID : 3
    Format : VobSub
    Muxing mode : zlib
    Codec ID : S_VOBSUB
    Codec ID/Info : The same subtitle format used on DVDs
    Language : English
    Default : Yes
    Forced : No








    Download Single Links


    Code:
    http://extabit.com/file/2edd9rcjyvrg7/Deewana.Main.Deewana.(2013).DvdRip.X264.ESubs.720P.[Team.Jaffa].mkv


    Code:
    http://lumfile.com/1cjel9yd86qt/Deewana.Main.Deewana.(2013).DvdRip.X264.ESubs.720P.[Team.Jaffa].mkv.html


    Code:
    http://uploaded.net/file/cpgn2t7v/Deewana.Main.Deewana.%282013%29.DvdRip.X264.ESubs.720P.%5BTeam.Jaffa%5D.mkv



    Download Parts Link

    Code:
    http://extabit.com/file/2edd9rcjyvrdj/Deewana.Main.Deewana.(2013).DvdRip.X264.ESubs.720P.[Team.Jaffa].mkv.001
    http://extabit.com/file/2edd9rcjyvrh3/Deewana.Main.Deewana.(2013).DvdRip.X264.ESubs.720P.[Team.Jaffa].mkv.002
    http://extabit.com/file/2edd9rcjyvuiv/Deewana.Main.Deewana.(2013).DvdRip.X264.ESubs.720P.[Team.Jaffa].mkv.003
    http://extabit.com/file/2edd9rcjyvujb/Deewana.Main.Deewana.(2013).DvdRip.X264.ESubs.720P.[Team.Jaffa].mkv.004
    http://extabit.com/file/2edd9rcjyvujr/Deewana.Main.Deewana.(2013).DvdRip.X264.ESubs.720P.[Team.Jaffa].mkv.005



    Code:
    http://lumfile.com/3b0vyne3428u/Deewana.Main.Deewana.(2013).DvdRip.X264.ESubs.720P.[Team.Jaffa].mkv.001.html
    http://lumfile.com/s4fvr1a252d6/Deewana.Main.Deewana.(2013).DvdRip.X264.ESubs.720P.[Team.Jaffa].mkv.002.html
    http://lumfile.com/641d2worzne5/Deewana.Main.Deewana.(2013).DvdRip.X264.ESubs.720P.[Team.Jaffa].mkv.003.html
    http://lumfile.com/0cm8qw6zaqeh/Deewana.Main.Deewana.(2013).DvdRip.X264.ESubs.720P.[Team.Jaffa].mkv.004.html
    http://lumfile.com/88pr3m58iyez/Deewana.Main.Deewana.(2013).DvdRip.X264.ESubs.720P.[Team.Jaffa].mkv.005.html





    Code:
    http://uploaded.net/file/l3uvv9pu/Deewana.Main.Deewana.%282013%29.DvdRip.X264.ESubs.720P.%5BTeam.Jaffa%5D.mkv.001
    http://uploaded.net/file/8nsgq6v5/Deewana.Main.Deewana.%282013%29.DvdRip.X264.ESubs.720P.%5BTeam.Jaffa%5D.mkv.002
    http://uploaded.net/file/fynvdpq0/Deewana.Main.Deewana.%282013%29.DvdRip.X264.ESubs.720P.%5BTeam.Jaffa%5D.mkv.003
    http://uploaded.net/file/im33idsb/Deewana.Main.Deewana.%282013%29.DvdRip.X264.ESubs.720P.%5BTeam.Jaffa%5D.mkv.004
    http://uploaded.net/file/fnip74ap/Deewana.Main.Deewana.%282013%29.DvdRip.X264.ESubs.720P.%5BTeam.Jaffa%5D.mkv.005


 

 

Posting Permissions

  • You may not post new threads
  • You may not post replies
  • You may not post attachments
  • You may not edit your posts
  •