Results 1 to 1 of 1
  1. #1
    dR Rockers www.desirulez.net
    Join Date
    Aug 2011
    Posts
    5,859

    Cool Talaash (2012) - 720p - DVDRip - x264 - DTS - MSubs - [Team Jaffa]

    Follow us on Social Media














    Code:
    General
    Format : Matroska
    Format version : Version 4 / Version 2
    File size : 2.20 GiB
    Duration : 2h 20mn
    Overall bit rate : 2 245 Kbps
    Encoded date : UTC 2013-02-22 07:04:40
    Writing application : mkvmerge v6.0.0 ('Coming Up For Air')
    Writing library : libebml v1.3.0 + libmatroska v1.4.0
    
    Video
    ID : 1
    Format : AVC
    Format/Info : Advanced Video Codec
    Format profile : [email protected]
    Format settings, CABAC : Yes
    Format settings, ReFrames : 4 frames
    Codec ID : V_MPEG4/ISO/AVC
    Duration : 2h 20mn
    Bit rate : 1 790 Kbps
    Width : 1 280 pixels
    Height : 544 pixels
    Display aspect ratio : 2.35:1
    Frame rate mode : Constant
    Frame rate : 23.976 fps
    Color space : YUV
    Chroma subsampling : 4:2:0
    Bit depth : 8 bits
    Scan type : Progressive
    Bits/(Pixel*Frame) : 0.107
    Stream size : 1.72 GiB (78%)
    Writing library : x264 core 129 r2245 bc13772
    Language : English
    Default : Yes
    Forced : No
    
    Audio
    ID : 2
    Format : DTS
    Format/Info : Digital Theater Systems
    Mode : 16
    Format settings, Endianness : Big
    Codec ID : A_DTS
    Duration : 2h 20mn
    Bit rate mode : Constant
    Bit rate : 755 Kbps
    Channel(s) : 6 channels
    Channel positions : Front: L C R, Side: L R, LFE
    Sampling rate : 48.0 KHz
    Bit depth : 24 bits
    Compression mode : Lossy
    Stream size : 758 MiB (30%)
    Default : Yes
    Forced : No
    
    Text #1
    ID : 3
    Format : VobSub
    Muxing mode : zlib
    Codec ID : S_VOBSUB
    Codec ID/Info : The same subtitle format used on DVDs
    Language : English
    Default : Yes
    Forced : No
    
    Text #2
    ID : 4
    Format : VobSub
    Muxing mode : zlib
    Codec ID : S_VOBSUB
    Codec ID/Info : The same subtitle format used on DVDs
    Language : Arabic
    Default : No
    Forced : No
    
    Text #3
    ID : 5
    Format : VobSub
    Muxing mode : zlib
    Codec ID : S_VOBSUB
    Codec ID/Info : The same subtitle format used on DVDs
    Language : French
    Default : No
    Forced : No
    
    Text #4
    ID : 6
    Format : VobSub
    Muxing mode : zlib
    Codec ID : S_VOBSUB
    Codec ID/Info : The same subtitle format used on DVDs
    Language : Dutch
    Default : No
    Forced : No




























    SINGLE DIRECT FAST LINKS

    Code:
    http://lumfile.com/xlfcpah4twot/Talaash.(2012).DvdRip.X264.DTS.MSubs.720P.[Team.Jaffa].mkv.html
    Code:
    http://extabit.com/file/2ducnijhddn2l/Talaash.(2012).DvdRip.X264.DTS.MSubs.720P.[Team.Jaffa].mkv

    500MB LINKS





    Code:
    http://lumfile.com/cy3q1n9wp5dn/Talaash.(2012).DvdRip.X264.DTS.MSubs.720P.[Team.Jaffa].mkv.001.html
    http://lumfile.com/6olmzv8bl5vh/Talaash.(2012).DvdRip.X264.DTS.MSubs.720P.[Team.Jaffa].mkv.002.html
    http://lumfile.com/1p1198txyg8z/Talaash.(2012).DvdRip.X264.DTS.MSubs.720P.[Team.Jaffa].mkv.003.html
    http://lumfile.com/wnm478vqeg8f/Talaash.(2012).DvdRip.X264.DTS.MSubs.720P.[Team.Jaffa].mkv.004.html
    http://lumfile.com/1n92urcuga2f/Talaash.(2012).DvdRip.X264.DTS.MSubs.720P.[Team.Jaffa].mkv.005.html
    http://lumfile.com/2ygmoek5wf5e/Talaash.(2012).DvdRip.X264.DTS.MSubs.720P.[Team.Jaffa].mkv.006.html

    Code:
    http://extabit.com/file/2ducnijhe0aj1/Talaash.(2012).DvdRip.X264.DTS.MSubs.720P.[Team.Jaffa].mkv.001
    http://extabit.com/file/2ducnijhddn4d/Talaash.(2012).DvdRip.X264.DTS.MSubs.720P.[Team.Jaffa].mkv.002
    http://extabit.com/file/2ducnijhddk0d/Talaash.(2012).DvdRip.X264.DTS.MSubs.720P.[Team.Jaffa].mkv.003
    http://extabit.com/file/2ducnijhe0ajx/Talaash.(2012).DvdRip.X264.DTS.MSubs.720P.[Team.Jaffa].mkv.004
    http://extabit.com/file/2ducnijhddn8t/Talaash.(2012).DvdRip.X264.DTS.MSubs.720P.[Team.Jaffa].mkv.005
    http://extabit.com/file/2ducnijhddn4t/Talaash.(2012).DvdRip.X264.DTS.MSubs.720P.[Team.Jaffa].mkv.006

 

 

Posting Permissions

  • You may not post new threads
  • You may not post replies
  • You may not post attachments
  • You may not edit your posts
  •