Results 1 to 1 of 1
  1. #1
    Super Member www.desirulez.net
    Join Date
    Sep 2012
    Location
    Pakistan
    Posts
    354

    Default Zila Ghaziabad (2013) CamRip XviD 1CD [Team Jaffa]

    Follow us on Social Media










    Code:
    General
    Format : AVI
    Format/Info : Audio Video Interleave
    File size : 693 MiB
    Duration : 2h 9mn
    Overall bit rate : 749 Kbps
    
    Video
    ID : 0
    Format : MPEG-4 Visual
    Format profile : Advanced [email protected]
    Format settings, BVOP : 2
    Format settings, QPel : No
    Format settings, GMC : No warppoints
    Format settings, Matrix : Default (H.263)
    Codec ID : XVID
    Codec ID/Hint : XviD
    Duration : 2h 9mn
    Bit rate : 694 Kbps
    Width : 608 pixels
    Height : 256 pixels
    Display aspect ratio : 2.40:1
    Frame rate : 25.000 fps
    Color space : YUV
    Chroma subsampling : 4:2:0
    Bit depth : 8 bits
    Scan type : Progressive
    Compression mode : Lossy
    Bits/(Pixel*Frame) : 0.178
    Stream size : 643 MiB (93%)
    Writing library : XviD 1.2.1 (UTC 2008-12-04)
    
    Audio
    ID : 1
    Format : MPEG Audio
    Format version : Version 2
    Format profile : Layer 3
    Mode : Joint stereo
    Mode extension : MS Stereo
    Codec ID : 55
    Codec ID/Hint : MP3
    Duration : 2h 9mn
    Bit rate mode : Constant
    Bit rate : 48.0 Kbps
    Channel(s) : 2 channels
    Sampling rate : 22.05 KHz
    Compression mode : Lossy
    Stream size : 44.4 MiB (6%)
    Alignment : Aligned on interleaves
    Interleave, duration : 160 ms (4.00 video frames)
    Interleave, preload duration : 209 ms
    Title : audio






    DOWNLOAD


    Code:
    http://uploaded.net/file/0fgob9ih/Zila%20Ghaziabad%20%282013%29%20CamRip%20XviD%201CD%20%5BTeam%20Jaffa%5D.avi

    Code:
    http://rapidgator.net/file/79866985/Zila_Ghaziabad_(2013)_CamRip_XviD_1CD_[Team_Jaffa].avi.html

 

 

Posting Permissions

  • You may not post new threads
  • You may not post replies
  • You may not post attachments
  • You may not edit your posts
  •