Results 1 to 1 of 1
  1. #1

    Cool 58th Idea Filmfare Awards (2013) Red Carpet & Main Event DTHRip XviD 2CD [Team Jaffa]

    Follow us on Social Media








    General
    Format : AVI
    Format/Info : Audio Video Interleave
    File size : 1.44 GiB
    Duration : 2h 56mn
    Overall bit rate : 1 168 Kbps

    Video
    ID : 0
    Format : MPEG-4 Visual
    Format profile : Advanced [email protected]
    Format settings, BVOP : 2
    Format settings, QPel : No
    Format settings, GMC : No warppoints
    Format settings, Matrix : Default (H.263)
    Codec ID : XVID
    Codec ID/Hint : XviD
    Duration : 2h 56mn
    Bit rate : 1 114 Kbps
    Width : 720 pixels
    Height : 400 pixels
    Display aspect ratio : 16:9
    Frame rate : 25.000 fps
    Color space : YUV
    Chroma subsampling : 4:2:0
    Bit depth : 8 bits
    Scan type : Progressive
    Compression mode : Lossy
    Bits/(Pixel*Frame) : 0.155
    Stream size : 1.37 GiB (95%)
    Writing library : XviD 1.2.1 (UTC 2008-12-04)

    Audio
    ID : 1
    Format : MPEG Audio
    Format version : Version 2
    Format profile : Layer 3
    Mode : Joint stereo
    Mode extension : MS Stereo
    Codec ID : 55
    Codec ID/Hint : MP3
    Duration : 2h 56mn
    Bit rate mode : Constant
    Bit rate : 48.0 Kbps
    Channel(s) : 2 channels
    Sampling rate : 22.05 KHz
    Compression mode : Lossy
    Stream size : 60.6 MiB (4%)
    Alignment : Aligned on interleaves
    Interleave, duration : 160 ms (4.00 video frames)
    Interleave, preload duration : 209 ms
    Title : 2cd audio
























    Code:
    http://extabit.com/file/2dtw1bti783xj/
    
    http://datacloud.to/download/77cdda7b/58th-idea-filmfare-awards-2013-red-carpet-main-event-dthrip-xvid-2cd-team-jaffa-avi
    
    http://rapidgator.net/file/79783996/58th_Idea_Filmfare_Awards_(2013)_Red_Carpet_&_Main_Event_DTHRip_XviD_2CD_[Team_Jaffa].avi.html

 

 

Posting Permissions

  • You may not post new threads
  • You may not post replies
  • You may not post attachments
  • You may not edit your posts
  •