Results 1 to 1 of 1
  1. #1
    dR Rockers www.desirulez.net
    Join Date
    Jul 2009
    Posts
    551

    T

    Default michael jackson black or white 17mb very HQ

    Follow us on Social Media







    Video Format : AVC Format/Info : Advanced Video Codec Format profile : [email protected] Format settings, CABAC : Yes Format settings, ReFrames : 5 frames Codec ID : avc1 Codec ID/Info : Advanced Video Coding Duration : 6mn 22s Bit rate mode : Variable Bit rate : 344 Kbps Nominal bit rate : 346 Kbps Maximum bit rate : 681 Kbps Width : 448 pixels Height : 336 pixels Display aspect ratio : 4/3 Frame rate mode : Constant Frame rate : 29.970 fps Resolution : 24 bits Colorimetry : 4:2:0 Scan type : Progressive Bits/(Pixel*Frame) : 0.076 Stream size : 15.7 MiB (87%) Writing library : x264 core 55 Audio Format : AAC Format/Info : Advanced Audio Codec Format version : Version 4 Format profile : HE Format settings, SBR : No Codec ID : 40 Duration : 6mn 22s Bit rate mode : Variable Bit rate : 48.0 Kbps Maximum bit rate : 55.6 Kbps Channel(s) : 2 channels[/code] Channel positions : L R Sampling rate : 24.0 KHz Resolution : 16 bits Stream size : 2.13 MiB (12%)
    Code:
    http://rapidshare.com/files/260402858/Black_or_White_-Cassadee.mkv
    Ps enjoy the hq for small mb ill be uploading more so enjoy

 

 

Posting Permissions

  • You may not post new threads
  • You may not post replies
  • You may not post attachments
  • You may not edit your posts
  •