Results 1 to 1 of 1
  1. #1

    Cool Rajdhani Express (2013) - DvdRip - XviD - ESubs - 1CD [Team Jaffa]

    Follow us on Social Media








    General
    Format : AVI
    Format/Info : Audio Video Interleave
    File size : 692 MiB
    Duration : 1h 59mn
    Overall bit rate : 810 Kbps

    Video
    ID : 0
    Format : MPEG-4 Visual
    Format profile : Advanced [email protected]
    Format settings, BVOP : 2
    Format settings, QPel : No
    Format settings, GMC : No warppoints
    Format settings, Matrix : Default (H.263)
    Codec ID : XVID
    Codec ID/Hint : XviD
    Duration : 1h 59mn
    Bit rate : 754 Kbps
    Width : 624 pixels
    Height : 272 pixels
    Display aspect ratio : 2.25:1
    Frame rate : 29.970 fps
    Color space : YUV
    Chroma subsampling : 4:2:0
    Bit depth : 8 bits
    Scan type : Progressive
    Compression mode : Lossy
    Bits/(Pixel*Frame) : 0.148
    Stream size : 645 MiB (93%)
    Writing library : XviD 1.2.1 (UTC 2008-12-04)

    Audio
    ID : 1
    Format : MPEG Audio
    Format version : Version 2
    Format profile : Layer 3
    Mode : Joint stereo
    Mode extension : MS Stereo
    Codec ID : 55
    Codec ID/Hint : MP3
    Duration : 1h 59mn
    Bit rate mode : Constant
    Bit rate : 48.0 Kbps
    Channel(s) : 2 channels
    Sampling rate : 22.05 KHz
    Compression mode : Lossy
    Stream size : 41.0 MiB (6%)
    Alignment : Aligned on interleaves
    Interleave, duration : 133 ms (4.00 video frames)
    Interleave, preload duration : 209 ms
    Title : AudioFile_80
    Writing library : LAME3.99.5ªªox©e(Ё*

    Sub: English



















    Code:
    http://filegag.com/sv690zvf3dbe
    
    ESubs:
    http://filegag.com/vq3871xsq1ar

    Code:
    http://datacloud.to/download/4ddf76436c/rajdhani-express-2013-dvdrip-xvid-esubs-1cd-team-jaffa-avi
    
    ESubs:
    http://datacloud.to/download/46bfd4895/rajdhani-express-2013-dvdrip-xvid-esubs-1cd-team-jaffa-rar

    Code:
    http://rapidgator.net/file/79630422/Rajdhani_Express_(2013)_DvdRip_XviD_ESubs_1CD_[Team_Jaffa].avi.html
    
    ESubs:
    http://rapidgator.net/file/79629238/Rajdhani_Express_(2013)_DvdRip_XviD_ESubs_1CD_[Team_Jaffa].rar.html

 

 

Posting Permissions

  • You may not post new threads
  • You may not post replies
  • You may not post attachments
  • You may not edit your posts
  •