Results 1 to 1 of 1
  1. #1
    dR Contributor www.desirulez.net
    Join Date
    Mar 2010
    Posts
    2,245

    Default Talaash (2012) (Hindi) 720p DVDRip x264 6Ch [EXD]

    Follow us on Social Media





    Talaash (2012) (Hindi) 720p DVDRip x264 6Ch [EXD ]















    Rip Information

    Code:
    Format : Matroska
    Format version : Version 2
    File size : 1.36 GiB
    Duration : 2h 20mn
    Overall bit rate : 1 389 Kbps
    Movie name : Talaash (2012)[email protected] [EXD Exclusive]
    Video

    Code:
    Codec ID : V_MPEG4/ISO/AVC
    Duration : 2h 20mn
    Bit rate : 940 Kbps
    Width : 1 280 pixels
    Height : 544 pixels
    Display aspect ratio : 2.35:1
    Frame rate : 23.976 fps
    Color space : YUV
    Chroma subsampling : 4:2:0
    Bit depth : 8 bits
    Scan type : Progressive
    Bits/(Pixel*Frame) : 0.056
    Stream size : 918 MiB (66%)
    Title : [email protected]
    Audio

    Code:
    Format : AC-3
    Format/Info : Audio Coding 3
    Mode extension : CM (complete main)
    Format settings, Endianness : Big
    Muxing mode : Header stripping
    Codec ID : A_AC3
    Duration : 2h 20mn
    Bit rate mode : Constant
    Bit rate : 448 Kbps
    Channel(s) : 6 channels
    Channel positions : Front: L C R, Side: L R, LFE
    Sampling rate : 48.0 KHz
    Bit depth : 16 bits
    Compression mode : Lossy
    Stream size : 450 MiB (32%)
    Title : [email protected]
    Language : Hindi









    Download Links




    Code:
    http://extabit.com/file/2edd9tzi7kfhj/Talaash (2012)[email protected] [EXD Exclusive].mkv
    http://extabit.com/file/2edd9tzi7jn2v/Talaash (2012)[email protected] [EXD Exclusive].srt


    Code:
    http://lumfile.com/hwlfdybfz9mi/Talaash_(2012)[email protected]_[EXD_Exclusive].mkv.html
    http://lumfile.com/0qe50z81j31r/Talaash_(2012)[email protected]_[EXD_Exclusive].srt.html



    Code:
    http://ul.to/tfhtxn40/Talaash (2012)[email protected] [EXD Exclusive].mkv
    http://ul.to/calbmoiw/Talaash_(2012)[email protected]_[EXD_Exclusive].srt.html

 

 

Posting Permissions

  • You may not post new threads
  • You may not post replies
  • You may not post attachments
  • You may not edit your posts
  •