Results 1 to 1 of 1
  1. #1
    dR Rockers www.desirulez.net
    Join Date
    Aug 2011
    Posts
    5,859

    Cool Talaash (2012) - 1.3GB - 720p - DVDRip - x264 - 6Ch - [EXD Exclusive]

    Follow us on Social Media













    Code:
    Rip Information
    
    Format                                   : Matroska
    Format version                           : Version 2
    File size                                : 1.36 GiB
    Duration                                 : 2h 20mn
    Overall bit rate                         : 1 389 Kbps
    Movie name                               : Talaash (2012)[email protected] [EXD Exclusive]
    
    
    
    Video
    
    Codec ID                                 : V_MPEG4/ISO/AVC
    Duration                                 : 2h 20mn
    Bit rate                                 : 940 Kbps
    Width                                    : 1 280 pixels
    Height                                   : 544 pixels
    Display aspect ratio                     : 2.35:1
    Frame rate                               : 23.976 fps
    Color space                              : YUV
    Chroma subsampling                       : 4:2:0
    Bit depth                                : 8 bits
    Scan type                                : Progressive
    Bits/(Pixel*Frame)                       : 0.056
    Stream size                              : 918 MiB (66%)
    Title                                    : [email protected]
    
    
    
    Audio
    
    Format                                   : AC-3
    Format/Info                              : Audio Coding 3
    Mode extension                           : CM (complete main)
    Format settings, Endianness              : Big
    Muxing mode                              : Header stripping
    Codec ID                                 : A_AC3
    Duration                                 : 2h 20mn
    Bit rate mode                            : Constant
    Bit rate                                 : 448 Kbps
    Channel(s)                               : 6 channels
    Channel positions                        : Front: L C R, Side: L R, LFE
    Sampling rate                            : 48.0 KHz
    Bit depth                                : 16 bits
    Compression mode                         : Lossy
    Stream size                              : 450 MiB (32%)
    Title                                    : [email protected]
    Language                                 : Hindi





    SINGLE DIRECT FAST LINKS


    Code:
    http://lumfile.com/o2s9d6u8ra08/Talaash.(2012).720p.DVDRip.x264.6Ch.[EXD.Exclusive].mkv.html
    http://lumfile.com/knnf2zxbxkez/Talaash.(2012).720p.DVDRip.x264.6Ch.[EXD.Exclusive].srt.html
    Code:
    http://extabit.com/file/2ducnkwk21zg5/Talaash.(2012).720p.DVDRip.x264.6Ch.[EXD.Exclusive].mkv
    http://extabit.com/file/2ducnkwk2ojp1/Talaash.(2012).720p.DVDRip.x264.6Ch.[EXD.Exclusive].srt

 

 

Posting Permissions

  • You may not post new threads
  • You may not post replies
  • You may not post attachments
  • You may not edit your posts
  •