Results 1 to 1 of 1
  1. #1
    dR Contributor www.desirulez.net
    Join Date
    Mar 2010
    Posts
    2,245

    Default Talaash (2012) (Hindi) DVDRip XviD 1CDRip [ExD]

    Follow us on Social Media





    Talaash (2012) (Hindi) DVDRip XviD 1CDRip [ExD]








    Rip Information

    Code:
    Format : AVI
    Format/Info : Audio Video Interleave
    File size : 698 MiB
    Duration : 2h 20mn
    Overall bit rate : 694 Kbps
    Video

    Code:
    Codec ID : XVID
    Codec ID/Hint : XviD
    Duration : 2h 20mn
    Bit rate : 558 Kbps
    Width : 688 pixels
    Height : 288 pixels
    Display aspect ratio : 2.40:1
    Frame rate : 23.976 fps
    Color space : YUV
    Chroma subsampling : 4:2:0
    Bit depth : 8 bits
    Scan type : Progressive
    Compression mode : Lossy
    Bits/(Pixel*Frame) : 0.118
    Stream size : 561 MiB (80%)
    Audio 1

    Code:
    Codec ID : 2000
    Duration : 2h 20mn
    Bit rate mode : Constant
    Bit rate : 128 Kbps
    Channel(s) : 6 channels
    Channel positions : Front: L C R, Side: L R, LFE
    Sampling rate : 48.0 KHz
    Bit depth : 16 bits
    Compression mode : Lossy
    Stream size : 129 MiB (18%)
    Alignment : Aligned on interleaves
    Interleave, duration : 64 ms (1.53 video frames)
    Interleave, preload duration : 192 ms
    Title : [email protected]







    Download Links


    Code:
    http://extabit.com/file/2ducnkg290qfu/Talaash.2012.DVDRip.XviD.1CDRip.ExD.avi

    Code:
    http://uploaded.net/file/vo1fe25m/Talaash.2012.DVDRip.XviD.1CDRip.ExD.avi

    Code:
    http://lumfile.com/osmmuk2ogdbs/Talaash.2012.DVDRip.XviD.1CDRip.ExD.avi.html

    Code:
    http://rapidgator.net/file/79230961/Talaash.2012.DVDRip.XviD.1CDRip.ExD.avi.html

 

 

Posting Permissions

  • You may not post new threads
  • You may not post replies
  • You may not post attachments
  • You may not edit your posts
  •