Results 1 to 1 of 1
  1. #1

    Cool Talaash (2012) - DVDRip - XviD - 1CDRip - By [email protected] [ExD ExclusivE]

    Follow us on Social Media

















    Format : AVI
    Format/Info : Audio Video Interleave
    File size : 698 MiB
    Duration : 2h 20mn
    Overall bit rate : 694 Kbps

    Codec ID : XVID
    Codec ID/Hint : XviD
    Duration : 2h 20mn
    Bit rate : 558 Kbps
    Width : 688 pixels
    Height : 288 pixels
    Display aspect ratio : 2.40:1
    Frame rate : 23.976 fps
    Color space : YUV
    Chroma subsampling : 4:2:0
    Bit depth : 8 bits
    Scan type : Progressive
    Compression mode : Lossy
    Bits/(Pixel*Frame) : 0.118
    Stream size : 561 MiB (80%)

    Codec ID : 2000
    Duration : 2h 20mn
    Bit rate mode : Constant
    Bit rate : 128 Kbps
    Channel(s) : 6 channels
    Channel positions : Front: L C R, Side: L R, LFE
    Sampling rate : 48.0 KHz
    Bit depth : 16 bits
    Compression mode : Lossy
    Stream size : 129 MiB (18%)
    Alignment : Aligned on interleaves
    Interleave, duration : 64 ms (1.53 video frames)
    Interleave, preload duration : 192 ms
    Title : [email protected]


    Code:
    http://filegag.com/388brsg82dal
    
    http://datacloud.to/download/e679a4e778/talaash-2012-dvdrip-xvid-1cdrip-by-k-rtik-exd-exclusive-1-avi
    
    http://rapidgator.net/file/79197814/Talaash_(2012)[email protected]_[ExD_ExclusivE]_(1).avi.html
    
    http://turbobit.net/77eii924gsdm/Talaash (2012)-DVDRip - XviD - 1CDRip -By [email protected] [ExD ExclusivE] (1).avi.html

 

 

Posting Permissions

  • You may not post new threads
  • You may not post replies
  • You may not post attachments
  • You may not edit your posts
  •