Results 1 to 1 of 1
  1. #1
    dR Rockers www.desirulez.net
    Join Date
    Aug 2011
    Posts
    5,859

    Cool Deewana Main Deewana (2013) - 1CD - DVDRip - x264 AAC - IDR

    Follow us on Social Media












    Code:
    GeneralComplete name : Deewana Main Deewana (2013) 1CD DVDRip - x264 AAC - IDR.mp4Format : MPEG-4Format profile : Base MediaCodec ID : isomFile size : 774 MiBDuration : 1h 52mnOverall bit rate mode : VariableOverall bit rate : 965 KbpsEncoded date : UTC 2013-02-19 13:46:43Tagged date : UTC 2013-02-19 13:46:46
    VideoID : 2Format : AVCFormat/Info : Advanced Video CodecFormat profile : [email protected] settings, CABAC : NoFormat settings, ReFrames : 1 frameMuxing mode : Container [email protected] ID : avc1Codec ID/Info : Advanced Video CodingDuration : 1h 52mnBit rate : 765 KbpsWidth : 640 pixelsHeight : 272 pixelsDisplay aspect ratio : 2.35:1Frame rate mode : ConstantFrame rate : 29.970 fpsOriginal frame rate : 29.000 fpsColor space : YUVChroma subsampling : 4:2:0Bit depth : 8 bitsScan type : ProgressiveBits/(Pixel*Frame) : 0.147Stream size : 614 MiB (79%)Writing library : ÄLanguage : English
    AudioID : 1Format : AACFormat/Info : Advanced Audio CodecFormat profile : LCCodec ID : 40Duration : 1h 52mnBit rate mode : VariableBit rate : 192 KbpsMaximum bit rate : 251 KbpsChannel(s) : 6 channelsChannel positions : Front: L C R, Side: L R, LFESampling rate : 48.0 KHzCompression mode : LossyStream size : 155 MiB (20%)Language : English
    TextID : 3Format : Apple textCodec ID : textDuration : 1h 31mnBit rate mode : VariableBit rate : 0 bpsStream size : 313 Bytes (0%)Encoded date : UTC 2013-02-19 13:46:46Tagged date : UTC 2013-02-19 13:46:46
    Menu00:00:00.000 : Chapter100:03:39.000 : Chapter200:12:54.000 : Chapter300:14:53.000 : Chapter400:18:52.000 : Chapter500:22:51.000 : Chapter600:33:32.000 : Chapter700:38:08.000 : Chapter800:42:07.000 : Chapter901:01:12.000 : Chapter1001:08:23.000 : Chapter1101:17:05.000 : Chapter1201:22:26.000 : Chapter1301:31:08.000 : Chapter14





    SINGLE DIRECT FAST LINKS



    Code:
    http://extabit.com/file/2ducnjzvgfbqr/Deewana.Main.Deewana.(2013).1CD.DVDRip.x264.AAC.IDR.mp4
    Code:
    http://lumfile.com/knrulzm0hlzc/Deewana.Main.Deewana.(2013).1CD.DVDRip.x264.AAC.IDR.mp4.html

 

 

Posting Permissions

  • You may not post new threads
  • You may not post replies
  • You may not post attachments
  • You may not edit your posts
  •