Results 1 to 2 of 2
  1. #1

    Cool Gangoobai (2013) DvdRip XviD 5.1CH ESubs 1CD [Team Jaffa]

    Follow us on Social Media








    Code:
    General
    Format                                   : AVI
    Format/Info                              : Audio Video Interleave
    File size                                : 696 MiB
    Duration                                 : 1h 45mn
    Overall bit rate                         : 920 Kbps
    
    Video
    ID                                       : 0
    Format                                   : MPEG-4 Visual
    Format profile                           : Advanced [email protected]
    Format settings, BVOP                    : 2
    Format settings, QPel                    : Yes
    Format settings, GMC                     : No warppoints
    Format settings, Matrix                  : Default (H.263)
    Codec ID                                 : XVID
    Codec ID/Hint                            : XviD
    Duration                                 : 1h 45mn
    Bit rate                                 : 783 Kbps
    Width                                    : 704 pixels
    Height                                   : 304 pixels
    Display aspect ratio                     : 2.35:1
    Frame rate                               : 29.970 fps
    Color space                              : YUV
    Chroma subsampling                       : 4:2:0
    Bit depth                                : 8 bits
    Scan type                                : Progressive
    Compression mode                         : Lossy
    Bits/(Pixel*Frame)                       : 0.122
    Stream size                              : 592 MiB (85%)
    Writing library                          : XviD 1.2.1 (UTC 2008-12-04)
    
    Audio
    ID                                       : 1
    Format                                   : AC-3
    Format/Info                              : Audio Coding 3
    Mode extension                           : CM (complete main)
    Format settings, Endianness              : Big
    Codec ID                                 : 2000
    Duration                                 : 1h 45mn
    Bit rate mode                            : Constant
    Bit rate                                 : 128 Kbps
    Channel(s)                               : 2 channels
    Channel positions                        : Front: L R
    Sampling rate                            : 48.0 KHz
    Bit depth                                : 16 bits
    Compression mode                         : Lossy
    Stream size                              : 96.9 MiB (14%)
    Alignment                                : Aligned on interleaves
    Interleave, duration                     : 64 ms (1.92 video frames)
    Interleave, preload duration             : 192 ms
    Title                                    : AudioFile_80_new
    
    Subs: English


















    Code:
    http://filegag.com/78yi5eg4kabn
    
    ESubs:
    http://filegag.com/26jbovk4gpxu

    Code:
    http://rapidgator.net/file/78979775/Gangoobai_(2013)_DvdRip_XviD_5.1CH_ESubs_1CD_[Team_Jaffa].avi.html
    
    ESubs:
    http://rapidgator.net/file/78980871/Gangoobai_(2013)_DvdRip_XviD_5.1CH_ESubs_1CD_[Team_Jaffa].rar.html

    Code:
    http://datacloud.to/download/6197448/gangoobai-2013-dvdrip-xvid-5-1ch-esubs-1cd-team-jaffa-avi
    
    ESubs:
    http://datacloud.to/download/226ae5e2/gangoobai-2013-dvdrip-xvid-5-1ch-esubs-1cd-team-jaffa-rar

  2. #2
    Landed To DesiRulez www.desirulez.net
    Join Date
    Mar 2013
    Posts
    13

    Default

    thanks bhai ji

 

 

Posting Permissions

  • You may not post new threads
  • You may not post replies
  • You may not post attachments
  • You may not edit your posts
  •