Results 1 to 1 of 1
  1. #1
    dR Contributor www.desirulez.net
    Join Date
    Jul 2012
    Posts
    795

    Cool WWE.Elimination.Chamber.1080i.Dual.Audio.WEmpireHD

    Follow us on Social Media






    WWE.Elimination.Chamber.17th.Feb.2013





    1080i.Dual.Audio.WEmpireHD











    Code:
    WWE.Elimination.Chamber.1080i.WEmpireHD.ts 
    Format                                   : MPEG-TS 
    File size                                : 16.6 GiB 
    Duration                                 : 2h 52mn 
    Overall bit rate mode                    : Variable 
    Overall bit rate                         : 13.8 Mbps 
     
    Video 
    ID                                       : 1023 (0x3FF) 
    Menu ID                                  : 114 (0x72) 
    Format                                   : AVC 
    Format/Info                              : Advanced Video Codec 
    Format profile                           : [email protected] 
    Format settings, CABAC                   : Yes 
    Format settings, ReFrames                : 3 frames 
    Codec ID                                 : 27 
    Duration                                 : 2h 52mn 
    Bit rate                                 : 12.4 Mbps 
    Width                                    : 1 920 pixels 
    Height                                   : 1 080 pixels 
    Display aspect ratio                     : 16:9 
    Frame rate                               : 25.000 fps 
    Standard                                 : Component 
    Color space                              : YUV 
    Chroma subsampling                       : 4:2:0 
    Bit depth                                : 8 bits 
    Scan type                                : Interlaced 
    Scan order                               : Top Field First 
    Bits/(Pixel*Frame)                       : 0.238 
    Stream size                              : 14.9 GiB (89%) 
    Color primaries                          : BT.709 
    Transfer characteristics                 : BT.709 
    Matrix coefficients                      : BT.709 
     
    Audio #1 
    ID                                       : 1027 (0x403) 
    Menu ID                                  : 114 (0x72) 
    Format                                   : AC-3 
    Format/Info                              : Audio Coding 3 
    Mode extension                           : CM (complete main) 
    Format settings, Endianness              : Big 
    Codec ID                                 : 6 
    Duration                                 : 2h 52mn 
    Bit rate mode                            : Constant 
    Bit rate                                 : 384 Kbps 
    Channel(s)                               : 6 channels 
    Channel positions                        : Front: L C R, Side: L R, LFE 
    Sampling rate                            : 48.0 KHz 
    Bit depth                                : 16 bits 
    Compression mode                         : Lossy 
    Delay relative to video                  : -716ms 
    Stream size                              : 474 MiB (3%) 
    Language                                 : German 
    Language, more info                      : Clean effects 
     
    Audio #2 
    ID                                       : 1028 (0x404) 
    Menu ID                                  : 114 (0x72) 
    Format                                   : AC-3 
    Format/Info                              : Audio Coding 3 
    Mode extension                           : CM (complete main) 
    Format settings, Endianness              : Big 
    Codec ID                                 : 6 
    Duration                                 : 2h 52mn 
    Bit rate mode                            : Constant 
    Bit rate                                 : 384 Kbps 
    Channel(s)                               : 2 channels 
    Channel positions                        : Front: L R 
    Sampling rate                            : 48.0 KHz 
    Bit depth                                : 16 bits 
    Compression mode                         : Lossy 
    Delay relative to video                  : -782ms 
    Stream size                              : 474 MiB (3%) 
    Language                                 : English 
    Language, more info                      : Clean effects


    UL
    Code:
    http://uploaded.net/file/378jr0av/WWE.Elimination.Chamber.1080i.WEmpireHD.part11.rar
    http://uploaded.net/file/u7g4b2yb/WWE.Elimination.Chamber.1080i.WEmpireHD.part13.rar
    http://uploaded.net/file/1e2sn53k/WWE.Elimination.Chamber.1080i.WEmpireHD.part17.rar
    http://uploaded.net/file/p3001re8/WWE.Elimination.Chamber.1080i.WEmpireHD.part04.rar
    http://uploaded.net/file/ipskakg6/WWE.Elimination.Chamber.1080i.WEmpireHD.part06.rar
    http://uploaded.net/file/f57ehurc/WWE.Elimination.Chamber.1080i.WEmpireHD.part15.rar
    http://uploaded.net/file/3xn33ucn/WWE.Elimination.Chamber.1080i.WEmpireHD.part14.rar
    http://uploaded.net/file/t9jpvhsp/WWE.Elimination.Chamber.1080i.WEmpireHD.part16.rar
    http://uploaded.net/file/drxpxht9/WWE.Elimination.Chamber.1080i.WEmpireHD.part07.rar
    http://uploaded.net/file/ngi72ub4/WWE.Elimination.Chamber.1080i.WEmpireHD.part12.rar
    http://uploaded.net/file/gtjnapd4/WWE.Elimination.Chamber.1080i.WEmpireHD.part09.rar
    http://uploaded.net/file/vmng9k27/WWE.Elimination.Chamber.1080i.WEmpireHD.part10.rar
    http://uploaded.net/file/xu3qqcan/WWE.Elimination.Chamber.1080i.WEmpireHD.part05.rar
    http://uploaded.net/file/3gf4z9jt/WWE.Elimination.Chamber.1080i.WEmpireHD.part08.rar
    http://uploaded.net/file/7jl63yej/WWE.Elimination.Chamber.1080i.WEmpireHD.part03.rar
    http://uploaded.net/file/0mgro9x1/WWE.Elimination.Chamber.1080i.WEmpireHD.part02.rar
    http://uploaded.net/file/cyu86wd4/WWE.Elimination.Chamber.1080i.WEmpireHD.part01.rar
    TurboBit
    Code:
    http://turbobit.net/rhbjaore0vq8/WWE.Elimination.Chamber.1080i.WEmpireHD.part13.rar.html
    http://turbobit.net/t5ow5c5j8cnw/WWE.Elimination.Chamber.1080i.WEmpireHD.part14.rar.html
    http://turbobit.net/3lgqp4x53w0k/WWE.Elimination.Chamber.1080i.WEmpireHD.part15.rar.html
    http://turbobit.net/pxm58iktcysy/WWE.Elimination.Chamber.1080i.WEmpireHD.part17.rar.html
    http://turbobit.net/vlffk03w5dwd/WWE.Elimination.Chamber.1080i.WEmpireHD.part16.rar.html
    http://turbobit.net/0o7io11qrbo8/WWE.Elimination.Chamber.1080i.WEmpireHD.part07.rar.html
    http://turbobit.net/05wke4v7yiwu/WWE.Elimination.Chamber.1080i.WEmpireHD.part12.rar.html
    http://turbobit.net/ftnmn45n0pq9/WWE.Elimination.Chamber.1080i.WEmpireHD.part10.rar.html
    http://turbobit.net/pnaz2c8u8ogu/WWE.Elimination.Chamber.1080i.WEmpireHD.part06.rar.html
    http://turbobit.net/hmain3md6rr6/WWE.Elimination.Chamber.1080i.WEmpireHD.part11.rar.html
    http://turbobit.net/ui725whm2cn0/WWE.Elimination.Chamber.1080i.WEmpireHD.part08.rar.html
    http://turbobit.net/dy832yg3wc5c/WWE.Elimination.Chamber.1080i.WEmpireHD.part01.rar.html
    http://turbobit.net/ncvb7odr25n2/WWE.Elimination.Chamber.1080i.WEmpireHD.part03.rar.html
    http://turbobit.net/ctuf8b4k03to/WWE.Elimination.Chamber.1080i.WEmpireHD.part09.rar.html
    http://turbobit.net/wnvq9takd1df/WWE.Elimination.Chamber.1080i.WEmpireHD.part05.rar.html
    http://turbobit.net/bpu0uebqgof8/WWE.Elimination.Chamber.1080i.WEmpireHD.part04.rar.html
    http://turbobit.net/yk9utnjpl3uf/WWE.Elimination.Chamber.1080i.WEmpireHD.part02.rar.html


 

 

Posting Permissions

  • You may not post new threads
  • You may not post replies
  • You may not post attachments
  • You may not edit your posts
  •