Results 1 to 1 of 1
  1. #1

    Cool Jayanta Bhai Ki Love Story (2013) - DvdScrRip - XviD - 1CD [Team Jaffa]

    Follow us on Social Media









    Code:
    General
    Format                                   : AVI
    Format/Info                              : Audio Video Interleave
    File size                                : 696 MiB
    Duration                                 : 2h 5mn
    Overall bit rate                         : 775 Kbps
    
    Video
    ID                                       : 0
    Format                                   : MPEG-4 Visual
    Format profile                           : Advanced [email protected]
    Format settings, BVOP                    : 2
    Format settings, QPel                    : No
    Format settings, GMC                     : No warppoints
    Format settings, Matrix                  : Default (H.263)
    Codec ID                                 : XVID
    Codec ID/Hint                            : XviD
    Duration                                 : 2h 5mn
    Bit rate                                 : 706 Kbps
    Width                                    : 624 pixels
    Height                                   : 272 pixels
    Display aspect ratio                     : 2.25:1
    Frame rate                               : 23.976 fps
    Color space                              : YUV
    Chroma subsampling                       : 4:2:0
    Bit depth                                : 8 bits
    Scan type                                : Progressive
    Compression mode                         : Lossy
    Bits/(Pixel*Frame)                       : 0.173
    Stream size                              : 633 MiB (91%)
    Writing library                          : XviD 1.2.1 (UTC 2008-12-04)
    
    Audio
    ID                                       : 1
    Format                                   : MPEG Audio
    Format version                           : Version 2
    Format profile                           : Layer 3
    Mode                                     : Joint stereo
    Mode extension                           : MS Stereo
    Codec ID                                 : 55
    Codec ID/Hint                            : MP3
    Duration                                 : 2h 5mn
    Bit rate mode                            : Constant
    Bit rate                                 : 64.0 Kbps
    Channel(s)                               : 2 channels
    Sampling rate                            : 24.0 KHz
    Compression mode                         : Lossy
    Stream size                              : 57.4 MiB (8%)
    Alignment                                : Aligned on interleaves
    Interleave, duration                     : 167 ms (4.00 video frames)
    Interleave, preload duration             : 216 ms
    Title                                    : audio
    Writing library                          : LAME3.99r
    Encoding settings                        : -m j -V 4 -q 2 -lowpass 11 -b 64
    
    Sample: http://www45.zippyshare.com/v/29274302/file.html






















    Code:
    http://hugefiles.net/gb0tzavbkql9
    
    http://filegag.com/5wxapx0yf99f
    
    http://datacloud.to/download/421d200/jayanta-bhai-ki-love-story-2013-dvdscrrip-xvid-1cd-team-jaffa-avi
    
    http://rapidgator.net/file/78834531/Jayanta_Bhai_Ki_Love_Story_(2013)_DvdScrRip_XviD_1CD_[Team_Jaffa].avi.html

 

 

Posting Permissions

  • You may not post new threads
  • You may not post replies
  • You may not post attachments
  • You may not edit your posts
  •