Results 1 to 1 of 1
  1. #1
    Hot Member www.desirulez.net
    Join Date
    Oct 2011
    Posts
    536

    Default WWE Elimination Chamber (2013) PPV HDTV x264-IWStreams

    Follow us on Social Media







    CHECK QUALITY HERE

    SAMPLE | 8.85 MB SIZE
    Code:
    http://extabit.com/file/279rt7d1llnya/WWE.Elimination.Chamber.2013.PPV.HDTV.x264-IWStreams-Sample.mp4
    http://rapidgator.net/file/78725023/WWE.Elimination.Chamber.2013.PPV.HDTV.x264-IWStreams-Sample.mp4.html
    http://lumfile.com/1ygctflxxta4/WWE.Elimination.Chamber.2013.PPV.HDTV.x264-IWStreams-Sample.mp4.html
    SCREENS





    DOWNLOAD | 1.77 GB SIZE

    SINGLE LINK

    EXTABIT
    Code:
    http://extabit.com/file/279rt7d1lleea/WWE.Elimination.Chamber.2013.PPV.HDTV.x264-IWStreams.mp4
    RAPIDGATOR
    Code:
    http://rapidgator.net/file/78725267/WWE.Elimination.Chamber.2013.PPV.HDTV.x264-IWStreams.mp4.html
    UPLOADED
    Code:
    http://uploaded.net/file/8amuavp9/WWE.Elimination.Chamber.2013.PPV.HDTV.x264-IWStreams.mp4
    NETLOAD
    Code:
    http://www.netload.in/dateiLvSRmMiGJj/WWE.Elimination.Chamber.2013.PPV.HDTV.x264-IWStreams.mp4.htm
    LUMFILE
    Code:
    http://lumfile.com/y8e13jmb8erd/WWE.Elimination.Chamber.2013.PPV.HDTV.x264-IWStreams.mp4.html
    WWE Elimination Chamber 2013 PPV HDTV x264-IWStreams

    RELEASE INFO
    Code:
    General
    Complete name                     : mediainfo.mp4
    
    File size                                : 3.01 KiB
    
    General
    
    Complete name                            : WWE.Elimination.Chamber.2013.PPV.HDTV.x264-IWStreams.mp4
    
    Format                                   : MPEG-4
    Format 
    profile                                  : Base Media
    
    Codec ID                                 : isom
    
    File size                                : 1.77 GiB
    
    Duration                                 : 2h 54mn
    
    Overall bit rate                         : 1 457 Kbps
    
    Writing application                      : Lavf54.0.100
    
    
    Video
    ID                                  : 1
    
    Format                                   : AVC
    
    Format/Info                              : Advanced Video Codec
    
    Format profile                           : [email protected]
    
    Format settings, CABAC                   : Yes
    
    Format settings, ReFrames                : 4 frames
    
    Codec ID                                 : avc1
    
    Codec ID/Info                            : Advanced Video Coding
    
    Duration                                 : 2h 54mn
    
    Bit rate                                 : 1 317 Kbps
    
    Width                                    : 704 pixels
    
    Height                                   : 400 pixels
    
    Display aspect ratio                     : 16:9
    
    Frame rate mode                          : Constant
    
    Frame rate                               : 25.000 fps
    
    Color space                              : YUV
    
    Chroma subsampling                       : 4:2:0
    
    Bit depth                                : 8 bits
    
    Scan type                                : Progressive
    
    Bits/(Pixel*Frame)                       : 0.187
    
    Stream size                              : 1.60 GiB (90%)
    
    Writing library                          : x264 core 128 r2216 198a7ea
    
    
    Audio
    ID                                  : 2
    
    Format                                   : AAC
    
    Format/Info                              : Advanced Audio Codec
    
    Format profile                           : LC
    
    Codec ID                                 : 40
    
    Duration                                 : 2h 54mn
    
    Bit rate mode                            : Constant
    
    Bit rate                                 : 132 Kbps
    
    Channel(s)                               : 2 channels
    
    Channel positions                        : Front: L R
    
    Sampling rate                            : 44.1 KHz
    
    Compression mode                         : Lossy
    
    Stream size                              : 164 MiB (9%)
    "Thanks" for reading and downloading from my thread

 

 

Posting Permissions

  • You may not post new threads
  • You may not post replies
  • You may not post attachments
  • You may not edit your posts
  •