Results 1 to 1 of 1
  1. #1
    Super Member www.desirulez.net
    Join Date
    Sep 2012
    Location
    Pakistan
    Posts
    354

    Default Murder 3 (2013) SCamRip XviD 1CD [Team Jaffa]

    Follow us on Social Media







    Code:
    General
    Format                                   : AVI
    Format/Info                              : Audio Video Interleave
    File size                                : 694 MiB
    Duration                                 : 1h 53mn
    Overall bit rate                         : 858 Kbps
    
    Video
    ID                                       : 0
    Format                                   : MPEG-4 Visual
    Format profile                           : Advanced [email protected]
    Format settings, BVOP                    : 2
    Format settings, QPel                    : No
    Format settings, GMC                     : No warppoints
    Format settings, Matrix                  : Default (H.263)
    Codec ID                                 : XVID
    Codec ID/Hint                            : XviD
    Duration                                 : 1h 53mn
    Bit rate                                 : 804 Kbps
    Width                                    : 608 pixels
    Height                                   : 256 pixels
    Display aspect ratio                     : 2.40:1
    Frame rate                               : 25.000 fps
    Color space                              : YUV
    Chroma subsampling                       : 4:2:0
    Bit depth                                : 8 bits
    Scan type                                : Progressive
    Compression mode                         : Lossy
    Bits/(Pixel*Frame)                       : 0.207
    Stream size                              : 650 MiB (94%)
    Writing library                          : XviD 1.2.1 (UTC 2008-12-04)
    
    Audio
    ID                                       : 1
    Format                                   : MPEG Audio
    Format version                           : Version 2
    Format profile                           : Layer 3
    Mode                                     : Joint stereo
    Mode extension                           : MS Stereo
    Codec ID                                 : 55
    Codec ID/Hint                            : MP3
    Duration                                 : 1h 53mn
    Bit rate mode                            : Constant
    Bit rate                                 : 48.0 Kbps
    Channel(s)                               : 2 channels
    Sampling rate                            : 22.05 KHz
    Compression mode                         : Lossy
    Stream size                              : 38.8 MiB (6%)
    Alignment                                : Aligned on interleaves
    Interleave, duration                     : 160 ms (4.00 video frames)
    Interleave, preload duration             : 209 ms
    Title                                    : VTS_01_1 Tc0 L2 2ch 48 128 DELAY 0ms
    Writing library                          : LAME3.99.5UUUUUULAME












    DOWNLOAD



    Code:
    http://uploaded.net/file/jagjk5w3/Murder.3.2013.SCamRip.XviD.1CD.Team.Jaffa.avi
    
    
    http://lumfile.com/u1dy3hnxldtk/Murder.3.2013.SCamRip.XviD.1CD.Team.Jaffa.avi.html
    
    
    http://rapidgator.net/file/78641982/Murder.3.2013.SCamRip.XviD.1CD.Team.Jaffa.avi.html

 

 

Posting Permissions

  • You may not post new threads
  • You may not post replies
  • You may not post attachments
  • You may not edit your posts
  •