Results 1 to 1 of 1
  1. #1
    Super Member www.desirulez.net
    Join Date
    Sep 2012
    Location
    Pakistan
    Posts
    354

    Default Dabangg 2 (2012) 1/3DVD 480p XViD 6Chnls AC3(Original) MSubs{Team ExD}

    Follow us on Social Media







    Code:
    Format : AVI
    Format/Info : Audio Video Interleave
    File size : 1.45 GiB
    Duration : 2h 3mn
    Overall bit rate : 1 679 Kbps
    Writing application : VirtualDubMod 1.5.10.2 (build 2542/release)
    Writing library : VirtualDubMod build 2542/release
    
    Video
    ID : 0
    Format : MPEG-4 Visual
    Format profile : Advanced [email protected]
    Format settings, BVOP : 1
    Format settings, QPel : No
    Format settings, GMC : No warppoints
    Format settings, Matrix : Default (H.263)
    Muxing mode : Packed bitstream
    Codec ID : XVID
    Codec ID/Hint : XviD
    Duration : 2h 3mn
    Bit rate : 1 222 Kbps
    Width : 720 pixels
    Height : 304 pixels
    Display aspect ratio : 2.35:1
    Frame rate : 23.976 fps
    Color space : YUV
    Chroma subsampling : 4:2:0
    Bit depth : 8 bits
    Scan type : Progressive
    Compression mode : Lossy
    Bits/(Pixel*Frame) : 0.233
    Stream size : 1.06 GiB (73%)
    Writing library : XviD 1.2.1 (UTC 2008-12-04)
    
    Audio
    ID : 1
    Format : AC-3
    Format/Info : Audio Coding 3
    Mode extension : CM (complete main)
    Codec ID : 2000
    Duration : 2h 3mn
    Bit rate mode : Constant
    Bit rate : 448 Kbps
    Channel(s) : 6 channels
    Channel positions : Front: L C R, Side: L R, LFE
    Sampling rate : 48.0 KHz
    Bit depth : 16 bits
    Compression mode : Lossy
    Delay relative to video : 750ms
    Stream size : 396 MiB (27%)
    Alignment : Split accross interleaves
    Interleave, duration : 42 ms (1.00 video frame)
    Interleave, preload duration : 500 ms
















    DOWNLOAD


    Code:
    http://uploaded.net/file/7bor2kg5/Dabangg%202%20%282013%29%201by3DVD%20XViD%7BTeam%20ExD%7D.avi
    http://uploaded.net/file/p6wl1056/Subtitles.rar

    Code:
    http://lumfile.com/9yxrv6fw0jws/Dabangg_2_(2013)_1by3DVD_XViD{Team_ExD}.avi.html
    http://lumfile.com/p5igbzgupqb8/Subtitles.rar.html

    Code:
    http://rapidgator.net/file/78597987/Dabangg_2_(2013)_1by3DVD_XViD{Team_ExD}.avi.html
    http://rapidgator.net/file/78597250/Subtitles.rar.html

 

 

Posting Permissions

  • You may not post new threads
  • You may not post replies
  • You may not post attachments
  • You may not edit your posts
  •