Results 1 to 1 of 1
  1. #1

    Cool Dabaang 2 (2012) - DvdRip - X264 - Untouched AC3 - MSubs - 720P [Jaffa]

    Follow us on Social Media







    Code:
    General
    Format                                   : Matroska
    Format version                           : Version 4 / Version 2
    File size                                : 1.84 GiB
    Duration                                 : 2h 3mn
    Overall bit rate                         : 2 127 Kbps
    Writing application                      : mkvmerge v6.0.0 ('Coming Up For Air')
    Writing library                          : libebml v1.3.0 + libmatroska v1.4.0
    
    Video
    ID                                       : 1
    Format                                   : AVC
    Format/Info                              : Advanced Video Codec
    Format profile                           : [email protected]
    Format settings, CABAC                   : Yes
    Format settings, ReFrames                : 4 frames
    Codec ID                                 : V_MPEG4/ISO/AVC
    Duration                                 : 2h 3mn
    Bit rate                                 : 1 674 Kbps
    Width                                    : 1 290 pixels
    Height                                   : 544 pixels
    Display aspect ratio                     : 2.40:1
    Frame rate mode                          : Constant
    Frame rate                               : 23.976 fps
    Color space                              : YUV
    Chroma subsampling                       : 4:2:0
    Bit depth                                : 8 bits
    Scan type                                : Progressive
    Bits/(Pixel*Frame)                       : 0.099
    Stream size                              : 1.41 GiB (77%)
    Writing library                          : x264 core 129 r2245 bc13772
    Language                                 : English
    Default                                  : Yes
    Forced                                   : No
    
    Audio
    ID                                       : 2
    Format                                   : AC-3
    Format/Info                              : Audio Coding 3
    Mode extension                           : CM (complete main)
    Format settings, Endianness              : Big
    Codec ID                                 : A_AC3
    Duration                                 : 2h 3mn
    Bit rate mode                            : Constant
    Bit rate                                 : 448 Kbps
    Channel(s)                               : 6 channels
    Channel positions                        : Front: L C R, Side: L R, LFE
    Sampling rate                            : 48.0 KHz
    Bit depth                                : 16 bits
    Compression mode                         : Lossy
    Stream size                              : 396 MiB (21%)
    Default                                  : Yes
    Forced                                   : No
    
    Text #1
    ID                                       : 3
    Format                                   : VobSub
    Muxing mode                              : zlib
    Codec ID                                 : S_VOBSUB
    Codec ID/Info                            : The same subtitle format used on DVDs
    Language                                 : English
    Default                                  : Yes
    Forced                                   : No
    
    Text #2
    ID                                       : 4
    Format                                   : VobSub
    Muxing mode                              : zlib
    Codec ID                                 : S_VOBSUB
    Codec ID/Info                            : The same subtitle format used on DVDs
    Language                                 : Arabic
    Default                                  : No
    Forced                                   : No
    
    Sample: http://www40.zippyshare.com/v/84848670/file.html




















    Code:
    http://hugefiles.net/psi4whwzypfm
    
    http://rapidgator.net/file/78581702/Dabaang_2_(2012)_DvdRip_X264_Untouched_AC3_MSubs_720P_[Team_Jaffa].mkv.html
    
    http://turbobit.net/ifty9qlhpzvu.html
    
    http://datacloud.to/download/c07e8ef0/dabaang-2-2012-dvdrip-x264-untouched-ac3-msubs-720p-team-jaffa-mkv

 

 

Posting Permissions

  • You may not post new threads
  • You may not post replies
  • You may not post attachments
  • You may not edit your posts
  •