Results 1 to 2 of 2
  1. #1
    dR Rockers www.desirulez.net
    Join Date
    Jun 2011
    Posts
    2,793

    Thumbs up Rajdhani Express 2013 - Hindi - 1CD - DVDRip - XviD - Ac3 5.1 - [ExD] Avi 700Mb

    Follow us on Social Media








    Rip Information

    Format : AVI
    Format/Info : Audio Video Interleave
    File size : 709 MiB
    Duration : 1h 59mn
    Overall bit rate : 830 Kbps



    Video

    Codec ID : XVID
    Codec ID/Hint : XviD
    Duration : 1h 59mn
    Bit rate : 693 Kbps
    Width : 688 pixels
    Height : 288 pixels
    Display aspect ratio : 2.40:1
    Frame rate : 29.970 fps
    Color space : YUV
    Chroma subsampling : 4:2:0
    Bit depth : 8 bits
    Scan type : Progressive
    Compression mode : Lossy
    Bits/(Pixel*Frame) : 0.117
    Stream size : 592 MiB (83%)



    Audio

    Codec ID : 2000
    Duration : 1h 59mn
    Bit rate mode : Constant
    Bit rate : 128 Kbps
    Channel(s) : 6 channels
    Channel positions : Front: L C R, Side: L R, LFE
    Sampling rate : 48.0 KHz
    Bit depth : 16 bits
    Compression mode : Lossy
    Stream size : 109 MiB (15%)
    Alignment : Aligned on interleaves
    Interleave, duration : 64 ms (1.92 video frames)
    Interleave, preload duration : 192 ms
    Title : [email protected]













    (Resume Supported)

    Code:
    http://www.queenshare.com/qf6lrjqdxrvd

  2. #2
    Landed To DesiRulez www.desirulez.net
    Join Date
    Jun 2012
    Posts
    21

    Default

    love hindi movies thanks for sharing

 

 

Posting Permissions

  • You may not post new threads
  • You may not post replies
  • You may not post attachments
  • You may not edit your posts
  •