Results 1 to 1 of 1
  1. #1
    dR Rockers www.desirulez.net
    Join Date
    Aug 2011
    Posts
    5,859

    Cool Dabaang 2 (2012) - 720p - DVDRip - x264 AAC - IDR

    Follow us on Social Media













    Code:
    General
    Complete name : Dabaang 2 (2012) 720p DVDRip - x264 AAC - IDR.mp4
    Format : MPEG-4
    Format profile : Base Media
    Codec ID : isom
    File size : 1.95 GiB
    Duration : 2h 3mn
    Overall bit rate mode : Variable
    Overall bit rate : 2 260 Kbps
    Encoded date : UTC 2013-02-15 15:01:21
    Tagged date : UTC 2013-02-15 15:01:25
    
    Video
    ID : 2
    Format : AVC
    Format/Info : Advanced Video Codec
    Format profile : [email protected]
    Format settings, CABAC : No
    Format settings, ReFrames : 1 frame
    Format settings, GOP : M=1, N=25
    Muxing mode : Container [email protected]
    Codec ID : avc1
    Codec ID/Info : Advanced Video Coding
    Duration : 2h 3mn
    Bit rate : 2 060 Kbps
    Width : 1 280 pixels
    Height : 544 pixels
    Display aspect ratio : 2.35:1
    Frame rate mode : Constant
    Frame rate : 29.970 fps
    Original frame rate : 29.000 fps
    Color space : YUV
    Chroma subsampling : 4:2:0
    Bit depth : 8 bits
    Scan type : Progressive
    Bits/(Pixel*Frame) : 0.099
    Stream size : 1.78 GiB (91%)
    Writing library : ?(???
    Language : English
    
    Audio
    ID : 1
    Format : AAC
    Format/Info : Advanced Audio Codec
    Format profile : LC
    Codec ID : 40
    Duration : 2h 3mn
    Bit rate mode : Variable
    Bit rate : 192 Kbps
    Maximum bit rate : 263 Kbps
    Channel(s) : 6 channels
    Channel positions : Front: L C R, Side: L R, LFE
    Sampling rate : 48.0 KHz
    Compression mode : Lossy
    Stream size : 170 MiB (9%)
    Language : English
    
    Text
    ID : 3
    Format : Apple text
    Codec ID : text
    Duration : 1h 58mn
    Bit rate mode : Variable
    Bit rate : 1 bps
    Stream size : 727 Bytes (0%)
    Encoded date : UTC 2013-02-15 15:01:25
    Tagged date : UTC 2013-02-15 15:01:25
    
    Menu
    00:00:00.000 : Chapter1
    00:05:05.000 : Chapter2
    00:07:21.000 : Chapter3
    00:12:36.000 : Chapter4
    00:14:52.000 : Chapter5
    00:18:38.000 : Chapter6
    00:24:12.000 : Chapter7
    00:25:32.000 : Chapter8
    00:26:33.000 : Chapter9
    00:29:29.000 : Chapter10
    00:35:09.000 : Chapter11
    00:39:35.000 : Chapter12
    00:43:29.000 : Chapter13
    00:45:21.000 : Chapter14
    00:49:14.000 : Chapter15
    00:53:23.000 : Chapter16
    00:55:23.000 : Chapter17
    00:59:18.000 : Chapter18
    01:03:55.000 : Chapter19
    01:06:10.000 : Chapter20
    01:08:09.000 : Chapter21
    01:10:05.000 : Chapter22
    01:14:19.000 : Chapter23
    01:18:18.000 : Chapter24
    01:22:07.000 : Chapter25
    01:25:15.000 : Chapter26
    01:30:35.000 : Chapter27
    01:33:38.000 : Chapter28
    01:35:58.000 : Chapter29
    01:40:46.000 : Chapter30
    01:47:43.000 : Chapter31
    01:58:34.000 : Chapter32





    SINGLE DIRECT FAST LINKS

    Code:
    http://extabit.com/file/2ducnmn7c87e9/Dabaang.2.2012.720p.DVDRip.x264.AAC.IDR.mp4


    Code:
    http://lumfile.com/2cdfw7t7b306/Dabaang.2.2012.720p.DVDRip.x264.AAC.IDR.mp4.html
    Code:
    http://uploaded.net/file/48xgy0yv/Dabaang.2.2012.720p.DVDRip.x264.AAC.IDR.mp4

 

 

Posting Permissions

  • You may not post new threads
  • You may not post replies
  • You may not post attachments
  • You may not edit your posts
  •