Results 1 to 1 of 1
  1. #1
    dR Rockers www.desirulez.net
    Join Date
    Aug 2011
    Posts
    5,859

    Cool Dabangg 2 (2012) - 700MB - 1CD - DVDRip - XviD - Team DST

    Follow us on Social Media
















    Code:
    General
    Complete name                            : C:\Dabangg 2 (2012) - DVDRip - XviD - 1CDRip - (Team DST)\Dabangg 2 (2012) - DVDRip - XviD - 1CDRip - (Team DST).avi
    Format                                   : AVI
    Format/Info                              : Audio Video Interleave
    File size                                : 860 MiB
    Duration                                 : 2h 3mn
    Overall bit rate                         : 972 Kbps
    
    Video
    ID                                       : 0
    Format                                   : MPEG-4 Visual
    Format profile                           : [email protected]
    Format settings, BVOP                    : No
    Format settings, QPel                    : No
    Format settings, GMC                     : No warppoints
    Format settings, Matrix                  : Default (H.263)
    Codec ID                                 : XVID
    Codec ID/Hint                            : XviD
    Duration                                 : 2h 3mn
    Bit rate                                 : 826 Kbps
    Width                                    : 720 pixels
    Height                                   : 480 pixels
    Display aspect ratio                     : 3:2
    Frame rate                               : 29.970 fps
    Original frame rate                      : 29.000 fps
    Standard                                 : NTSC
    Color space                              : YUV
    Chroma subsampling                       : 4:2:0
    Bit depth                                : 8 bits
    Scan type                                : Progressive
    Compression mode                         : Lossy
    Bits/(Pixel*Frame)                       : 0.080
    Stream size                              : 731 MiB (85%)
    Writing library                          : XviD 1.2.1 (UTC 2008-12-04)
    
    Audio
    ID                                       : 1
    Format                                   : MPEG Audio
    Format version                           : Version 1
    Format profile                           : Layer 3
    Mode                                     : Joint stereo
    Mode extension                           : MS Stereo
    Codec ID                                 : 55
    Codec ID/Hint                            : MP3
    Duration                                 : 2h 3mn
    Bit rate mode                            : Constant
    Bit rate                                 : 128 Kbps
    Channel(s)                               : 2 channels
    Sampling rate                            : 48.0 KHz
    Compression mode                         : Lossy
    Stream size                              : 113 MiB (13%)
    Alignment                                : Aligned on interleaves
    Interleave, duration                     : 24 ms (0.72 video frame)
    Writing library                          : LAME3.98.2
















    SINGLE DIRECT FAST LINKS


    Code:
    http://extabit.com/file/2ducnm1ecbd9x/Dabangg.2.2012.DVDRip.XviD.1CDRip.Team.DST.avi

    Code:
    http://lumfile.com/nz5wesma5j8e/Dabangg.2.2012.DVDRip.XviD.1CDRip.Team.DST.avi.html

    Code:
    http://uploaded.net/file/iqg0517j/Dabangg.2.2012.DVDRip.XviD.1CDRip.Team.DST.avi

 

 

Posting Permissions

  • You may not post new threads
  • You may not post replies
  • You may not post attachments
  • You may not edit your posts
  •