Results 1 to 1 of 1
  1. #1
    Hot Member www.desirulez.net
    Join Date
    Feb 2011
    Location
    Bulletproof IP
    Posts
    1,189

    Default Rajdhani Express (2013) - 1CD DVDRip - XviD - AC3 5.1 - [ExD ExclusivE]

    Follow us on Social Media





    Rajdhani Express
    (2013)
    DVDRip - XviD - AC3 5.1 - [ExD ExclusivE]





    Code:
    Movie                                    : Rajdhani Express
    Year                                     : 2013
    Imdb                                     : http://www.imdb.com/title/tt2560016/
    
    Format                                   : AVI
    Format/Info                              : Audio Video Interleave
    File size                                : 709 MiB
    Duration                                 : 1h 59mn
    Overall bit rate                         : 830 Kbps
    
    Video
    =====
    Codec ID                                 : XVID
    Codec ID/Hint                            : XviD
    Duration                                 : 1h 59mn
    Bit rate                                 : 693 Kbps
    Width                                    : 688 pixels
    Height                                   : 288 pixels
    Display aspect ratio                     : 2.40:1
    Frame rate                               : 29.970 fps
    Color space                              : YUV
    Chroma subsampling                       : 4:2:0
    Bit depth                                : 8 bits
    Scan type                                : Progressive
    Compression mode                         : Lossy
    Bits/(Pixel*Frame)                       : 0.117
    Stream size                              : 592 MiB (83%)
    
    Audio
    =====
    Codec ID                                 : AC3
    Duration                                 : 1h 59mn
    Bit rate mode                            : Constant
    Bit rate                                 : 128 Kbps
    Channel(s)                               : 6 channels
    Channel positions                        : Front: L C R, Side: L R, LFE
    Sampling rate                            : 48.0 KHz
    Bit depth                                : 16 bits
    Compression mode                         : Lossy
    Stream size                              : 109 MiB (15%)
    Alignment                                : Aligned on interleaves
    Interleave, duration                     : 64 ms (1.92 video frames)
    Interleave, preload duration             : 192 ms
    Title                                    : [email protected]












    All Credits Goes To [email protected] @ ExD (Thanks)

    Size: 709.23 MB

    Code:
    http://turbobit.net/e71ms9397vo7/R-Express-1CD-DVDRip-XviD-AC3-ExD.avi.html
    or
    http://hugefiles.net/16qfrt4pm4oi

 

 

Posting Permissions

  • You may not post new threads
  • You may not post replies
  • You may not post attachments
  • You may not edit your posts
  •