Results 1 to 1 of 1
  1. #1
    dR Rockers www.desirulez.net
    Join Date
    Aug 2011
    Posts
    5,859

    Cool Special 26 (2013) - DvdScrRip - XviD - ESubs - 1CD - [Team Jaffa]

    Follow us on Social Media












    Code:
    General
    Format                                   : AVI
    Format/Info                              : Audio Video Interleave
    File size                                : 692 MiB
    Duration                                 : 2h 19mn
    Overall bit rate                         : 694 Kbps
    
    Video
    ID                                       : 0
    Format                                   : MPEG-4 Visual
    Format profile                           : Advanced [email protected]
    Format settings, BVOP                    : 2
    Format settings, QPel                    : No
    Format settings, GMC                     : No warppoints
    Format settings, Matrix                  : Default (H.263)
    Codec ID                                 : XVID
    Codec ID/Hint                            : XviD
    Duration                                 : 2h 19mn
    Bit rate                                 : 640 Kbps
    Width                                    : 624 pixels
    Height                                   : 272 pixels
    Display aspect ratio                     : 2.25:1
    Frame rate                               : 23.976 fps
    Color space                              : YUV
    Chroma subsampling                       : 4:2:0
    Bit depth                                : 8 bits
    Scan type                                : Progressive
    Compression mode                         : Lossy
    Bits/(Pixel*Frame)                       : 0.157
    Stream size                              : 638 MiB (92%)
    Writing library                          : XviD 1.2.1 (UTC 2008-12-04)
    
    Audio
    ID                                       : 1
    Format                                   : MPEG Audio
    Format version                           : Version 2
    Format profile                           : Layer 3
    Mode                                     : Joint stereo
    Mode extension                           : MS Stereo
    Codec ID                                 : 55
    Codec ID/Hint                            : MP3
    Duration                                 : 2h 19mn
    Bit rate mode                            : Constant
    Bit rate                                 : 48.0 Kbps
    Channel(s)                               : 2 channels
    Sampling rate                            : 22.05 KHz
    Compression mode                         : Lossy
    Stream size                              : 47.8 MiB (7%)
    Alignment                                : Aligned on interleaves
    Interleave, duration                     : 167 ms (4.00 video frames)
    Interleave, preload duration             : 209 ms
    Title                                    : audio
    Writing library                          : LAME3.99.5UUUUUULAME
    
    Subs: English






















    SINGLE DIRECT FAST LINKS
    Code:
    http://extabit.com/file/2ducnls6dhtxv/Special.26.2013.DvdScrRip.XviD.ESubs.1CD.Team.Jaffa.avi
    http://extabit.com/file/2ducnls6di3ar/Special.26.2013.DvdScrRip.XviD.ESubs.1CD.Team.Jaffa.idx
    http://extabit.com/file/2ducnls6di3f7/Special.26.2013.DvdScrRip.XviD.ESubs.1CD.Team.Jaffa.sub
    Code:
    http://lumfile.com/wjt6revafdc5/Special.26.2013.DvdScrRip.XviD.ESubs.1CD.Team.Jaffa.avi.html
    http://lumfile.com/i4ceq4h3etfq/Special.26.2013.DvdScrRip.XviD.ESubs.1CD.Team.Jaffa.idx.html
    http://lumfile.com/6bl1ng35pef5/Special.26.2013.DvdScrRip.XviD.ESubs.1CD.Team.Jaffa.sub.html
    Code:
    http://uploaded.net/file/witvn51x/Special.26.2013.DvdScrRip.XviD.ESubs.1CD.Team.Jaffa.avi
    http://uploaded.net/file/sqtth12q/Special.26.2013.DvdScrRip.XviD.ESubs.1CD.Team.Jaffa.idx
    http://uploaded.net/file/xdb5zp9x/Special.26.2013.DvdScrRip.XviD.ESubs.1CD.Team.Jaffa.sub

 

 

Posting Permissions

  • You may not post new threads
  • You may not post replies
  • You may not post attachments
  • You may not edit your posts
  •