Results 1 to 1 of 1
  1. #1
    dR Rockers www.desirulez.net
    Join Date
    Aug 2011
    Posts
    5,859

    Cool Chakradhaar (2012) - 720p - DVDRip - x264 - 6Ch - [EXD Exclusive]

    Follow us on Social Media












    Code:
    Rip Information
    
    Code  Code:
    
    Format                                   : Matroska
    Format version                           : Version 2
    File size                                : 1.22 GiB
    Duration                                 : 1h 58mn
    Overall bit rate                         : 1 472 Kbps
    Movie name                               : Chakradhaar (2012)[email protected] [EXD Exclusive]
    
    Video
    
    Code  Code:
    
    Format                                   : AVC
    Format/Info                              : Advanced Video Codec
    Format profile                           : [email protected]
    Format settings, CABAC                   : Yes
    Format settings, ReFrames                : 4 frames
    Muxing mode                              : Header stripping
    Codec ID                                 : V_MPEG4/ISO/AVC
    Duration                                 : 1h 58mn
    Bit rate                                 : 1 023 Kbps
    Width                                    : 1 280 pixels
    Height                                   : 588 pixels
    Display aspect ratio                     : 2.2:1
    Frame rate                               : 29.970 fps
    Color space                              : YUV
    Chroma subsampling                       : 4:2:0
    Bit depth                                : 8 bits
    Scan type                                : Progressive
    Bits/(Pixel*Frame)                       : 0.045
    Stream size                              : 843 MiB (68%)
    Title                                    : [email protected]
    Writing library                          : x264 core 129 r2245 bc1377
    
    Audio
    
    Code  Code:
    
    Format                                   : AC-3
    Format/Info                              : Audio Coding 3
    Mode extension                           : CM (complete main)
    Format settings, Endianness              : Big
    Muxing mode                              : Header stripping
    Codec ID                                 : A_AC3
    Duration                                 : 1h 58mn
    Bit rate mode                            : Constant
    Bit rate                                 : 448 Kbps
    Channel(s)                               : 6 channels
    Channel positions                        : Front: L C R, Side: L R, LFE
    Sampling rate                            : 48.0 KHz
    Bit depth                                : 16 bits
    Compression mode                         : Lossy
    Stream size                              : 379 MiB (30%)
    Title                                    : [email protected]
    Language                                 : Hindi















    SIGLE DIRECT FAST LINKS
    Code:
    http://extabit.com/file/2ducnm1jk4qg6/Chakradhaar.2012.720p.DVDRip.x264.6Ch.EXD.Exclusive.mkv
    http://extabit.com/file/2ducnm1jk532u/Chakradhaar.2012.720p.DVDRip.x264.6Ch.EXD.Exclusive.srt
    Code:
    http://lumfile.com/hsavegtcuzg8/Chakradhaar.2012.720p.DVDRip.x264.6Ch.EXD.Exclusive.mkv.html
    http://lumfile.com/ox2r55pt00uq/Chakradhaar.2012.720p.DVDRip.x264.6Ch.EXD.Exclusive.srt.html
    Code:
    http://uploaded.net/file/frjnzfel/Chakradhaar.2012.720p.DVDRip.x264.6Ch.EXD.Exclusive.mkv
    http://uploaded.net/file/j1pzrzs0/Chakradhaar.2012.720p.DVDRip.x264.6Ch.EXD.Exclusive.srt

 

 

Posting Permissions

  • You may not post new threads
  • You may not post replies
  • You may not post attachments
  • You may not edit your posts
  •