Results 1 to 1 of 1
  1. #1
    dR Rockers www.desirulez.net
    Join Date
    Aug 2011
    Posts
    5,859

    Cool Chakradhaar (2012) - 700MB - 1CD - DVDRip - XviD - Ac 5.1 - [ExD ExclusivE]

    Follow us on Social Media










    Code:
    Rip Information
    
    Format                                   : AVI
    Format/Info                              : Audio Video Interleave
    File size                                : 703 MiB
    Duration                                 : 1h 58mn
    Overall bit rate                         : 830 Kbps
    
    
    
    Video
    
    Format                                   : MPEG-4 Visual
    Format profile                           : Advanced [email protected]
    Format settings, BVOP                    : 3
    Format settings, QPel                    : No
    Format settings, GMC                     : No warppoints
    Format settings, Matrix                  : Default (H.263)
    Codec ID                                 : XVID
    Codec ID/Hint                            : XviD
    Duration                                 : 1h 58mn
    Bit rate                                 : 693 Kbps
    Width                                    : 688 pixels
    Height                                   : 288 pixels
    Display aspect ratio                     : 2.40:1
    Frame rate                               : 29.970 fps
    Color space                              : YUV
    Chroma subsampling                       : 4:2:0
    Bit depth                                : 8 bits
    Scan type                                : Progressive
    Compression mode                         : Lossy
    Bits/(Pixel*Frame)                       : 0.117
    Stream size                              : 587 MiB (83%)
    
    
    
    Audio
    
    Format                                   : AC-3
    Format/Info                              : Audio Coding 3
    Mode extension                           : CM (complete main)
    Format settings, Endianness              : Big
    Codec ID                                 : 2000
    Duration                                 : 1h 58mn
    Bit rate mode                            : Constant
    Bit rate                                 : 128 Kbps
    Channel(s)                               : 6 channels
    Channel positions                        : Front: L C R, Side: L R, LFE
    Sampling rate                            : 48.0 KHz
    Bit depth                                : 16 bits
    Compression mode                         : Lossy
    Stream size                              : 108 MiB (15%)
    Alignment                                : Aligned on interleaves
    Interleave, duration                     : 64 ms (1.92 video frames)
    Interleave, preload duration             : 192 ms















    ==Team EXD Exclusive==

    ==First On Net==

    SINGLE DIRECT FAST LINKS

    Code:
    http://extabit.com/file/2da6l2s1hbijp/Chakradhaar.2012.1CD.DVDRip.XviD.Ac.5.1.ExD.ExclusivE.avi

    Code:
    http://lumfile.com/ivlq8c9fkiez/Chakradhaar.2012.1CD.DVDRip.XviD.Ac.5.1.ExD.ExclusivE.avi.html

    Code:
    http://uploaded.net/file/9d37s1v7/Chakradhaar.2012.1CD.DVDRip.XviD.Ac.5.1.ExD.ExclusivE.avi

 

 

Posting Permissions

  • You may not post new threads
  • You may not post replies
  • You may not post attachments
  • You may not edit your posts
  •