Results 1 to 1 of 1
  1. #1
    Hot Member www.desirulez.net
    Join Date
    Feb 2011
    Location
    Bulletproof IP
    Posts
    1,189

    Default Special 26 (2013) - 1/5 DVDScr Rip - XviD - AC3 - Subs - 900MB - (DUS)

    Follow us on Social Media





    Special 26
    (2013)
    1/5 DVDScr Rip - XviD - AC3 - Subs - 900MB - (DUS)




    Code:
    Source : MovieClub
    
    General
    Complete name                            : Special26-1-5-DVDScr-XviD-AC3-DUS.avi
    Format                                   : AVI
    Format/Info                              : Audio Video Interleave
    File size                                : 894 MiB
    Duration                                 : 2h 19mn
    Overall bit rate                         : 896 Kbps
    
    Video
    ID                                       : 0
    Format                                   : MPEG-4 Visual
    Format profile                           : Advanced [email protected]
    Format settings, BVOP                    : 2
    Format settings, QPel                    : No
    Format settings, GMC                     : No warppoints
    Format settings, Matrix                  : Default (H.263)
    Codec ID                                 : XVID
    Codec ID/Hint                            : XviD
    Duration                                 : 2h 19mn
    Bit rate                                 : 825 Kbps
    Width                                    : 640 pixels
    Height                                   : 272 pixels
    Display aspect ratio                     : 2.35:1
    Frame rate                               : 23.976 fps
    Color space                              : YUV
    Chroma subsampling                       : 4:2:0
    Bit depth                                : 8 bits
    Scan type                                : Progressive
    Compression mode                         : Lossy
    Bits/(Pixel*Frame)                       : 0.198
    Stream size                              : 822 MiB (92%)
    Writing library                          : XviD 1.2.1 (UTC 2008-12-04)
    
    Audio
    ID                                       : 1
    Format                                   : AC-3
    Format/Info                              : Audio Coding 3
    Mode extension                           : CM (complete main)
    Format settings, Endianness              : Big
    Codec ID                                 : 2000
    Duration                                 : 2h 19mn
    Bit rate mode                            : Constant
    Bit rate                                 : 64.0 Kbps
    Channel(s)                               : 2 channels
    Channel positions                        : Front: L R
    Sampling rate                            : 48.0 KHz
    Bit depth                                : 16 bits
    Compression mode                         : Lossy
    Stream size                              : 63.8 MiB (7%)
    Alignment                                : Aligned on interleaves
    Interleave, duration                     : 64 ms (1.53 video frames)
    Interleave, preload duration             : 192 ms
    Title                                    : VTS_01_1 T80 2_0ch 192Kbps DELAY 0ms_new
    ** Screens **








    All Credits Goes To Team DUS (Thanks)

    Size: 893.63 MB

    Code:
    http://turbobit.net/2s1i0conlb0x/Special26-1-5-DVDScr-XviD-AC3-DUS.avi.html
    or
    http://hugefiles.net/fxekouzmpf49
    
    Subtitles:
    http://hugefiles.net/ofgjcs2d2fn7

 

 

Posting Permissions

  • You may not post new threads
  • You may not post replies
  • You may not post attachments
  • You may not edit your posts
  •