Results 1 to 1 of 1
  1. #1
    dR Rockers www.desirulez.net
    Join Date
    Aug 2011
    Posts
    5,859

    Cool Talaash (2012) (Non Retail) 1/2DVDRip - WideScreen - x264 - Subs - AC3 - DUS

    Follow us on Social Media














    Code:
    Source : ICT
    
    General
    Unique ID                                : 226739337827948274126903242133268326922 (0xAA9468749C56220592357039DA17EA0A)
    Complete name                            : H:\Downloads\Talaash (2012) Non Retail DVDRip WideScreen x264 AC3 Subs - (DUS)\Talaash (2012) 3CD Non-Retail DVDRip x264 AC3 Subs - (DUS).mkv
    Format                                   : Matroska
    Format version                           : Version 2
    File size                                : 2.05 GiB
    Duration                                 : 2h 13mn
    Overall bit rate                         : 2 204 Kbps
    Encoded date                             : UTC 2013-02-09 17:38:22
    Writing application                      : mkvmerge v4.9.1 ('Ich will') built on Jul 11 2011 23:53:15
    Writing library                          : libebml v1.2.1 + libmatroska v1.1.1
    
    Video
    ID                                       : 1
    Format                                   : AVC
    Format/Info                              : Advanced Video Codec
    Format profile                           : [email protected]
    Format settings, CABAC                   : Yes
    Format settings, ReFrames                : 4 frames
    Codec ID                                 : V_MPEG4/ISO/AVC
    Duration                                 : 2h 13mn
    Bit rate                                 : 2 010 Kbps
    Width                                    : 868 pixels
    Height                                   : 384 pixels
    Display aspect ratio                     : 2.25:1
    Frame rate mode                          : Constant
    Frame rate                               : 25.000 fps
    Color space                              : YUV
    Chroma subsampling                       : 4:2:0
    Bit depth                                : 8 bits
    Scan type                                : Progressive
    Bits/(Pixel*Frame)                       : 0.241
    Stream size                              : 1.83 GiB (89%)
    Writing library                          : x264 core 116 r2074 2641b9e
    Encoding settings                        : cabac=1 / ref=3 / deblock=1:0:0 / analyse=0x3:0x111 / me=hex / subme=7 / psy=1 / psy_rd=1.00:0.00 / mixed_ref=1 / me_range=16 / chroma_me=1 / trellis=1 / 8x8dct=1 / cqm=0 / deadzone=21,11 / fast_pskip=1 / chroma_qp_offset=-2 / threads=6 / sliced_threads=0 / nr=0 / decimate=1 / interlaced=0 / bluray_compat=0 / constrained_intra=0 / bframes=3 / b_pyramid=2 / b_adapt=1 / b_bias=0 / direct=1 / weightb=1 / open_gop=0 / weightp=2 / keyint=250 / keyint_min=25 / scenecut=40 / intra_refresh=0 / rc_lookahead=40 / rc=2pass / mbtree=1 / bitrate=2010 / ratetol=1.0 / qcomp=0.60 / qpmin=0 / qpmax=69 / qpstep=4 / cplxblur=20.0 / qblur=0.5 / ip_ratio=1.40 / aq=1:1.00
    Default                                  : Yes
    Forced                                   : No
    
    Audio
    ID                                       : 2
    Format                                   : AC-3
    Format/Info                              : Audio Coding 3
    Mode extension                           : CM (complete main)
    Format settings, Endianness              : Big
    Codec ID                                 : A_AC3
    Duration                                 : 2h 13mn
    Bit rate mode                            : Constant
    Bit rate                                 : 192 Kbps
    Channel(s)                               : 2 channels
    Channel positions                        : Front: L R
    Sampling rate                            : 48.0 KHz
    Bit depth                                : 16 bits
    Compression mode                         : Lossy
    Stream size                              : 183 MiB (9%)
    Default                                  : Yes
    Forced                                   : No




    SINGLE DIRECT FAST LINKS


    Code:
    http://extabit.com/file/2ducnof401sal/Talaash.2012.Non.Retail.DVDRip.WideScreen.x264.AC3.Subs.DUS.mkv
    Code:
    http://lumfile.com/z6sl7r5xruxo/Talaash.2012.Non.Retail.DVDRip.WideScreen.x264.AC3.Subs.DUS.mkv.html
    Code:
    http://uploaded.net/file/d7evxu2n/Talaash.2012.Non.Retail.DVDRip.WideScreen.x264.AC3.Subs.DUS.mkv

 

 

Posting Permissions

  • You may not post new threads
  • You may not post replies
  • You may not post attachments
  • You may not edit your posts
  •