Results 1 to 2 of 2
  1. #1

    Wink Agneepath (1991) - 1/3 DVDRip - XviD - AC3 - E-subs

    Follow us on Social Media







    Agneepath (1991) - 1/3 DVDRip - XviD - AC3 - E-subs






    Code:
    Video Specification
    Format : AVI
    Format/Info : Audio Video Interleave
    Format profile : OpenDML
    File size : 1.45 GiB
    Duration : 2h 47mn
    Overall bit rate : 1 244 Kbps
    
    
    Video
    Format : MPEG-4 Visual
    Format profile : Streaming [email protected]
    Format settings, BVOP : Yes
    Format settings, QPel : Yes
    Format settings, GMC : No warppoints
    Format settings, Matrix : Default (H.263)
    Codec ID : XVID
    Codec ID/Hint : XviD
    Duration : 2h 47mn
    Bit rate : 1 046 Kbps
    Width : 640 pixels
    Height : 320 pixels
    Display aspect ratio : 2.000
    Frame rate : 25.000 fps
    Resolution : 24 bits
    Colorimetry : 4:2:0
    Scan type : Progressive
    Bits/(Pixel*Frame) : 0.204
    Stream size : 1.22 GiB (84%)
    Writing library : XviD 1.2.1 (UTC 2008-12-04)
    
    Audio
    Format : AC-3
    Format/Info : Audio Coding 3
    Codec ID : 2000
    Duration : 2h 47mn
    Bit rate mode : Constant
    Bit rate : 192 Kbps
    Channel(s) : 2 channels
    Channel positions : L R
    Sampling rate : 48.0 KHz
    Stream size : 229 MiB (15%)





























    Rapidshare:
    Code:
    http://rapidshare.com/files/260190723/Agneepath.1991.By.TuHiN.TsG.avi.001
    http://rapidshare.com/files/260190416/Agneepath.1991.By.TuHiN.TsG.avi.002
    http://rapidshare.com/files/260190567/Agneepath.1991.By.TuHiN.TsG.avi.003
    http://rapidshare.com/files/260190746/Agneepath.1991.By.TuHiN.TsG.avi.004
    http://rapidshare.com/files/260193269/Agneepath.1991.By.TuHiN.TsG.avi.005
    http://rapidshare.com/files/260193390/Agneepath.1991.By.TuHiN.TsG.avi.006
    http://rapidshare.com/files/260191977/Agneepath.1991.By.TuHiN.TsG.avi.007
    http://rapidshare.com/files/260191376/Agneepath.1991.By.TuHiN.TsG.avi.008
    http://rapidshare.com/files/260190015/Agneepath.1991.By.TuHiN.TsG.Sub.rar


    Hotfile(Free Resume Capable-like Mediafire):
    Code:
    http://hotfile.com/dl/9198625/5946dd5/Agneepath.1991.By.TuHiN.TsG.avi.001.html
    http://hotfile.com/dl/9198657/93b1b60/Agneepath.1991.By.TuHiN.TsG.avi.002.html
    http://hotfile.com/dl/9198710/8c20bb6/Agneepath.1991.By.TuHiN.TsG.avi.003.html
    http://hotfile.com/dl/9198713/bcecc9e/Agneepath.1991.By.TuHiN.TsG.avi.004.html
    http://hotfile.com/dl/9198704/baced57/Agneepath.1991.By.TuHiN.TsG.avi.005.html
    http://hotfile.com/dl/9198669/65b66b4/Agneepath.1991.By.TuHiN.TsG.avi.006.html
    http://hotfile.com/dl/9198725/53fa24c/Agneepath.1991.By.TuHiN.TsG.avi.007.html
    http://hotfile.com/dl/9198712/f6be649/Agneepath.1991.By.TuHiN.TsG.avi.008.html
    http://hotfile.com/dl/9198642/1b4173e/Agneepath.1991.By.TuHiN.TsG.Sub.rar.html


    Filefactory:
    Code:
    http://filefactory.com/file/ahf5595/n/Agneepath_1991_By_TuHiN_TsG_avi_001
    http://filefactory.com/file/ahf56bh/n/Agneepath_1991_By_TuHiN_TsG_avi_002
    http://filefactory.com/file/ahf56ce/n/Agneepath_1991_By_TuHiN_TsG_avi_003
    http://filefactory.com/file/ahf56dh/n/Agneepath_1991_By_TuHiN_TsG_avi_004
    http://filefactory.com/file/ahf56g1/n/Agneepath_1991_By_TuHiN_TsG_avi_005
    http://filefactory.com/file/ahf5640/n/Agneepath_1991_By_TuHiN_TsG_avi_006
    http://filefactory.com/file/ahf5667/n/Agneepath_1991_By_TuHiN_TsG_avi_007
    http://filefactory.com/file/ahf568f/n/Agneepath_1991_By_TuHiN_TsG_avi_008
    http://filefactory.com/file/ahf5681/n/Agneepath_1991_By_TuHiN_TsG_Sub_rar


    Megaupload:
    Code:
    http://www.megaupload.com/?d=H76PNHI1
    http://www.megaupload.com/?d=9JOETJ1O
    http://www.megaupload.com/?d=EK4V5YG0
    http://www.megaupload.com/?d=B7E6PREG
    http://www.megaupload.com/?d=F49NEOHF
    http://www.megaupload.com/?d=D5FD7GM0
    http://www.megaupload.com/?d=1C00NIF7
    http://www.megaupload.com/?d=RH3KO0MV


    Depositfiles:
    Code:
    http://depositfiles.com/files/94rppg6kj
    http://depositfiles.com/files/x290k55m0

  2. #2
    Coolbie www.desirulez.net
    Join Date
    Dec 2008
    Location
    England
    Posts
    5,799

    T

    Default

    thanks

 

 

Posting Permissions

  • You may not post new threads
  • You may not post replies
  • You may not post attachments
  • You may not edit your posts
  •