Results 1 to 1 of 1
  1. #1
    dR Rockers www.desirulez.net
    Join Date
    Aug 2011
    Posts
    5,859

    Cool Vishwaroopan (2013) 1/5 MC DVDSCR Rip - XviD - AC3 - (DUS)

    Follow us on Social Media













    Code:
    Source : Untouched @ mm123
    
    General
    Complete name                            : H:\Downloads\Vishwaroopam (2013) 1-5 MC DVDSCR Rip XviD AC3 - (DUS).avi
    Format                                   : AVI
    Format/Info                              : Audio Video Interleave
    File size                                : 893 MiB
    Duration                                 : 2h 28mn
    Overall bit rate                         : 839 Kbps
    
    Video
    ID                                       : 0
    Format                                   : MPEG-4 Visual
    Format profile                           : Advanced [email protected]
    Format settings, BVOP                    : 2
    Format settings, QPel                    : No
    Format settings, GMC                     : No warppoints
    Format settings, Matrix                  : Default (H.263)
    Codec ID                                 : XVID
    Codec ID/Hint                            : XviD
    Duration                                 : 2h 28mn
    Bit rate                                 : 704 Kbps
    Width                                    : 640 pixels
    Height                                   : 272 pixels
    Display aspect ratio                     : 2.35:1
    Frame rate                               : 23.976 fps
    Color space                              : YUV
    Chroma subsampling                       : 4:2:0
    Bit depth                                : 8 bits
    Scan type                                : Progressive
    Compression mode                         : Lossy
    Bits/(Pixel*Frame)                       : 0.169
    Stream size                              : 749 MiB (84%)
    Writing library                          : XviD 1.2.1 (UTC 2008-12-04)
    
    Audio
    ID                                       : 1
    Format                                   : AC-3
    Format/Info                              : Audio Coding 3
    Mode extension                           : CM (complete main)
    Format settings, Endianness              : Big
    Codec ID                                 : 2000
    Duration                                 : 2h 28mn
    Bit rate mode                            : Constant
    Bit rate                                 : 128 Kbps
    Channel(s)                               : 2 channels
    Channel positions                        : Front: L R
    Sampling rate                            : 48.0 KHz
    Bit depth                                : 16 bits
    Compression mode                         : Lossy
    Stream size                              : 136 MiB (15%)
    Alignment                                : Aligned on interleaves
    Interleave, duration                     : 64 ms (1.53 video frames)
    Interleave, preload duration             : 192 ms
    Title                                    : VTS_01_1 Tc0 L2 2ch 48 128 DEL




    SINGLE DIRECT FAST LINKS


    Code:
    http://extabit.com/file/2duc5028fpfjy/Vishwaroopam.2013.1-5.MC.DVDSCR.Rip.XviD.AC3.DUS.avi
    Code:
    http://lumfile.com/u5bu4mg0q20v/Vishwaroopam.2013.1-5.MC.DVDSCR.Rip.XviD.AC3.DUS.avi.html
    Code:
    http://uploaded.net/file/t756v7ed/Vishwaroopam.2013.1-5.MC.DVDSCR.Rip.XviD.AC3.DUS.avi


 

 

Posting Permissions

  • You may not post new threads
  • You may not post replies
  • You may not post attachments
  • You may not edit your posts
  •