Results 1 to 1 of 1
  1. #1
    dR Rockers www.desirulez.net
    Join Date
    Aug 2011
    Posts
    5,859

    Cool Le Gaya Saddam (2012) -720p - DVDRip - x264 - 6Ch - [EXD Exclusive]

    Follow us on Social Media











    Code:
    Rip Information
    
    Format                                   : Matroska
    Format version                           : Version 2
    File size                                : 1.20 GiB
    Duration                                 : 1h 48mn
    Overall bit rate                         : 1 574 Kbps
    Movie name                               : Le Gaya Saddam [2012][email protected] [EXD Exclusive]
    
    
    
    Video
    
    Format                                   : AVC
    Format/Info                              : Advanced Video Codec
    Format profile                           : [email protected]
    Format settings, CABAC                   : Yes
    Format settings, ReFrames                : 4 frames
    Muxing mode                              : Header stripping
    Codec ID                                 : V_MPEG4/ISO/AVC
    Duration                                 : 1h 48mn
    Bit rate                                 : 1 189 Kbps
    Width                                    : 1 280 pixels
    Height                                   : 544 pixels
    Display aspect ratio                     : 2.35:1
    Frame rate                               : 29.970 fps
    Color space                              : YUV
    Chroma subsampling                       : 4:2:0
    Bit depth                                : 8 bits
    Scan type                                : Progressive
    Bits/(Pixel*Frame)                       : 0.057
    Stream size                              : 902 MiB (74%)
    Title                                    : [email protected]
    Writing library                          : x264 core 129 r2230 1cffe9f
    
    
    
    Audio
    
    Format                                   : AC-3
    Format/Info                              : Audio Coding 3
    Mode extension                           : CM (complete main)
    Format settings, Endianness              : Big
    Muxing mode                              : Header stripping
    Codec ID                                 : A_AC3
    Duration                                 : 1h 48mn
    Bit rate mode                            : Constant
    Bit rate                                 : 384 Kbps
    Channel(s)                               : 6 channels
    Channel positions                        : Front: L C R, Side: L R, LFE
    Sampling rate                            : 48.0 KHz
    Bit depth                                : 16 bits
    Compression mode                         : Lossy
    Stream size                              : 299 MiB (24%)
    Title                                    : [email protected]
    Language                                 : Hindi















    SINGLE DIRECT FAST LINKS

    Code:
    http://extabit.com/file/2duc4zth9gd37/Le.Gaya.Saddam.2012.720p.DVDRip.x264.6Ch.EXD.Exclusive.mkv
    Code:
    http://lumfile.com/2jrelfnbpjw6/Le.Gaya.Saddam.2012.720p.DVDRip.x264.6Ch.EXD.Exclusive.mkv.html
    Code:
    http://uploaded.net/file/j0jybd6o/Le.Gaya.Saddam.2012.720p.DVDRip.x264.6Ch.EXD.Exclusive.mkv

 

 

Posting Permissions

  • You may not post new threads
  • You may not post replies
  • You may not post attachments
  • You may not edit your posts
  •