Results 1 to 1 of 1
  1. #1
    Hot Member www.desirulez.net
    Join Date
    Feb 2011
    Location
    Bulletproof IP
    Posts
    1,189

    Default Akaash Vani (2013) - 1CD DVDScr Rip - XviD - AC3 - [TDT]

    Follow us on Social Media





    AkaashVani
    (2013)
    1CD DVDScr Rip - XviD - AC3 - [TDT]





    Code:
    General
    Complete name : Akaash Vani (2013) - Xvid - DvdScr Rip - AC3 -[TDT].avi
    IMDB : Akaash Vani (2013) - IMDb
    Format : AVI
    File size : 699 MiB
    Duration : 2h 14mn
    Overall bit rate : 727 Kbps
    Source : DvdSCR @ obaid2k13
    Ripper : KingFisheR [~TDT~].
    
    Video
    Codec ID : XVID
    Duration : 2h 14mn
    Bit rate : 621 Kbps
    Width : 656 pixels
    Height : 272 pixels
    Display aspect ratio : 2.40:1
    Frame rate : 23.976 fps
    Bits/(Pixel*Frame) : 0.145
    Stream size : 598 MiB (86%)
    
    Audio
    Format : AC-3
    Duration : 2h 14mn
    Bit rate : 96.0 Kbps
    Channel(s) : 2 channels
    Channel positions : Front: L R
    Sampling rate : 48.0 KHz
    Stream size : 92.3 MiB (13%)


















    All Credits Goes To KingFisheR @ TDT (Thanks)

    Size: 699.17 MB

    Code:
    http://turbobit.net/ig9e9czzfaes/AkaashVani2013_-_1CD-DVDScr-Rip-XviD-AC3-TDT.avi.html
    or
    http://hugefiles.net/xmolihosiu8v

 

 

Posting Permissions

  • You may not post new threads
  • You may not post replies
  • You may not post attachments
  • You may not edit your posts
  •