Results 1 to 1 of 1
  1. #1
    dR Rockers www.desirulez.net
    Join Date
    Aug 2011
    Posts
    5,859

    Cool Tu Mera Main Tera 22 (2013) - 500MB - DVDScr - x264 - Ac3 - IDR

    Follow us on Social Media












    Code:
    General
    Unique ID : 219385386506264288491472049805890509782 (0xA50C16A9772A6D1AAF997D57BD315BD6)
    Complete name : Tu Mera 22 Main Tera 22 [2013] 500mb DVDScr x264 Ac3 - IDR.mkv
    Format : Matroska
    Format version : Version 2
    File size : 492 MiB
    Duration : 1h 49mn
    Overall bit rate : 628 Kbps
    Encoded date : UTC 2013-01-31 16:40:26
    Writing application : mkvmerge v5.8.0 ('No Sleep / Pillow') built on Sep 2 2012 15:37:04
    Writing library : libebml v1.2.3 + libmatroska v1.3.0
    
    Video
    ID : 1
    Format : AVC
    Format/Info : Advanced Video Codec
    Format profile : [email protected]
    Format settings, CABAC : Yes
    Format settings, ReFrames : 10 frames
    Codec ID : V_MPEG4/ISO/AVC
    Duration : 1h 49mn
    Bit rate : 499 Kbps
    Width : 640 pixels
    Height : 272 pixels
    Display aspect ratio : 2.35:1
    Frame rate mode : Constant
    Frame rate : 23.976 fps
    Color space : YUV
    Chroma subsampling : 4:2:0
    Bit depth : 8 bits
    Scan type : Progressive
    Bits/(Pixel*Frame) : 0.120
    Stream size : 382 MiB (78%)
    Writing library : x264 core 129 r2230 1cffe9f
    Encoding settings : cabac=1 / ref=10 / deblock=1:-2:-1 / analyse=0x3:0x113 / me=umh / subme=5 / psy=1 / psy_rd=1.00:0.00 / mixed_ref=1 / me_range=16 / chroma_me=1 / trellis=2 / 8x8dct=1 / cqm=0 / deadzone=21,11 / fast_pskip=1 / chroma_qp_offset=0 / threads=3 / lookahead_threads=1 / sliced_threads=0 / nr=0 / decimate=0 / interlaced=0 / bluray_compat=0 / constrained_intra=0 / bframes=16 / b_pyramid=2 / b_adapt=1 / b_bias=0 / direct=3 / weightb=1 / open_gop=0 / weightp=2 / keyint=240 / keyint_min=23 / scenecut=40 / intra_refresh=0 / rc_lookahead=40 / rc=abr / mbtree=1 / bitrate=499 / ratetol=1.0 / qcomp=0.60 / qpmin=10 / qpmax=51 / qpstep=4 / ip_ratio=1.40 / aq=2:1.00
    Language : English
    Default : Yes
    Forced : No
    
    Audio
    ID : 2
    Format : AC-3
    Format/Info : Audio Coding 3
    Mode extension : CM (complete main)
    Format settings, Endianness : Big
    Codec ID : A_AC3
    Duration : 1h 49mn
    Bit rate mode : Constant
    Bit rate : 128 Kbps
    Channel(s) : 2 channels
    Channel positions : Front: L R
    Sampling rate : 48.0 KHz
    Bit depth : 16 bits
    Compression mode : Lossy
    Stream size : 100 MiB (20%)
    Default : Yes
    Forced : No














    SINGLE DIRECT FAST LINKS

    Code:
    http://extabit.com/file/2duc52q6c5dac/Tu.Mera.22.Main.Tera.22.2013.500mb.DVDScr.X264.Ac3.IDR.mkv

    Code:
    http://uploaded.net/file/9adyxmb7/Tu.Mera.22.Main.Tera.22.2013.500mb.DVDScr.X264.Ac3.IDR.mkv
    Code:
    http://lumfile.com/eeczg0k6w7gc/Tu.Mera.22.Main.Tera.22.2013.500mb.DVDScr.X264.Ac3.IDR.mkv.html

 

 

Posting Permissions

  • You may not post new threads
  • You may not post replies
  • You may not post attachments
  • You may not edit your posts
  •