Results 1 to 1 of 1
  1. #1
    dR Contributor www.desirulez.net
    Join Date
    Jul 2012
    Posts
    795

    Cool WWE.Monday.Night.Raw.2013.01.28.HDTV.x264-RTW

    Follow us on Social Media





    WWE.Monday.Night.Raw.2013.01.28







    HDTV.x264-RTW








    Format : MPEG-4
    Format profile : Base Media
    Codec ID : isom
    File size : 1.64 GiB
    Duration : 2h 24mn
    Overall bit rate : 1 627 Kbps

    Video #1
    Format : AVC
    Format/Info : Advanced Video Codec
    Format profile : [email protected]
    Format settings, CABAC : Yes
    Format settings, ReFrames : 4 frames
    Codec ID : avc1
    Codec ID/Info : Advanced Video Coding
    Duration : 2h 24mn
    Bit rate mode : Variable
    Bit rate : 1 461 Kbps
    Width : 704 pixels
    Height : 400 pixels
    Display aspect ratio : 16/9
    Frame rate mode : Constant
    Frame rate : 25.000 fps
    Resolution : 24 bits
    Colorimetry : 4:2:0
    Scan type : Progressive
    Bits/(Pixel*Frame) : 0.207
    Stream size : 1.47 GiB (90%)

    Audio #2
    Format : AAC
    Format/Info : Advanced Audio Codec
    Format version : Version 4
    Format profile : LC
    Format settings, SBR : No
    Codec ID : 40
    Duration : 2h 24mn
    Bit rate mode : Variable
    Bit rate : 160 Kbps
    Channel(s) : 2 channels
    Channel positions : L R
    Sampling rate : 48.0 KHz
    Resolution : 16 bits
    Stream size : 165 MiB (10%)




    UL
    Code:
    http://uploaded.net/file/x3age7xt/WWE.Monday.Night.RAW.2013.01.28.HDTV.x264-RTW.mp4
    .........................
    http://uploaded.net/file/pnoq5wf4/WWE.Monday.Night.RAW.2013.01.28.HDTV.x264-RTW.part1.rar
    http://uploaded.net/file/v8kdx01h/WWE.Monday.Night.RAW.2013.01.28.HDTV.x264-RTW.part2.rar
    ShareFlare
    Code:
    http://shareflare.net/download/95945.9b702eefee7a64b3adb892318db2/WWE.Monday.Night.RAW.2013.01.28.HDTV.x264-RTW.part1.rar.html
    http://shareflare.net/download/12875.1e712fce267c28ffc4212bc41dc4/WWE.Monday.Night.RAW.2013.01.28.HDTV.x264-RTW.part2.rar.html
    TurboBit
    Code:
    http://turbobit.net/p5hl6mk8678q/WWE.Monday.Night.RAW.2013.01.28.HDTV.x264-RTW.part1.rar.html
    ........


 

 

Posting Permissions

  • You may not post new threads
  • You may not post replies
  • You may not post attachments
  • You may not edit your posts
  •