Results 1 to 1 of 1
  1. #1

    Default WWE.Monday.Night.Raw.2013.01.28.720p.HDTV.AVC-FreaK

    Follow us on Social Media





    .

    WWE.Monday.Night.Raw.2013.01.28.720p.HDTV.AVC-FreaK



    Titel: WWE Monday Night Raw 2013.01.28
    Genre: Sport
    Sprache/n: Englisch
    Hoster: Uploaded.net, Share-online.biz
    Größe: 5919.73 MB
    Parts: 8 Dateien
    Passwort: NeXt

    Cappers Notes:
    If peeps are wondering why the file size is a bigger
    compared to other releases, I use a higher video bitrate
    and I do not recode the audio to a lesser quality. I think
    the trade off is acceptable when you factor in the speed
    of the release.
    Video
    ID : 1
    Format : AVC
    Format/Info : Advanced Video Codec
    Format profile : [email protected]
    Format settings, CABAC : Yes
    Format settings, ReFrames : 4 frames
    Format settings, GOP : M=3, N=24
    Codec ID : V_MPEG4/ISO/AVC
    Duration : 2h 19mn
    Bit rate mode : Variable
    Bit rate : 5 388 Kbps
    Maximum bit rate : 20.0 Mbps
    Width : 1 280 pixels
    Height : 720 pixels
    Display aspect ratio : 16:9
    Frame rate mode : Constant
    Frame rate : 50.000 fps
    Color space : YUV
    Chroma subsampling : 4:2:0
    Bit depth : 8 bits
    Scan type : Progressive
    Bits/(Pixel*Frame) : 0.117
    Stream size : 5.23 GiB (91%)
    Default : Yes
    Forced : No
    Color primaries : BT.709
    Transfer characteristics : BT.709
    Matrix coefficients : BT.709
    Audio
    ID : 2
    Format : AC-3
    Format/Info : Audio Coding 3
    Mode extension : CM (complete main)
    Format settings, Endianness : Big
    Codec ID : A_AC3
    Duration : 2h 19mn
    Bit rate mode : Constant
    Bit rate : 384 Kbps
    Channel(s) : 2 channels
    Channel positions : Front: L R
    Sampling rate : 48.0 KHz
    Bit depth : 16 bits
    Compression mode : Lossy
    Stream size : 382 MiB (7%)
    Default : Yes
    Forced : No

    #Download
    Code:
    http://uploaded.net/file/3hs2ag56/WWE.Monday.Night.Raw.28th.Jan.2013.HDTV.720p.AVC-FreaK.part1.rar
    http://uploaded.net/file/wcg28wqf/WWE.Monday.Night.Raw.28th.Jan.2013.HDTV.720p.AVC-FreaK.part2.rar
    http://uploaded.net/file/b6q11n5d/WWE.Monday.Night.Raw.28th.Jan.2013.HDTV.720p.AVC-FreaK.part3.rar
    http://uploaded.net/file/jj8mwgm9/WWE.Monday.Night.Raw.28th.Jan.2013.HDTV.720p.AVC-FreaK.part4.rar
    http://uploaded.net/file/kw1gqsb1/WWE.Monday.Night.Raw.28th.Jan.2013.HDTV.720p.AVC-FreaK.part5.rar
    http://uploaded.net/file/yu2qe3xs/WWE.Monday.Night.Raw.28th.Jan.2013.HDTV.720p.AVC-FreaK.part6.rar
    http://uploaded.net/file/j4tljerl/WWE.Monday.Night.Raw.28th.Jan.2013.HDTV.720p.AVC-FreaK.part7.rar
    http://uploaded.net/file/z6ncnwq6/WWE.Monday.Night.Raw.28th.Jan.2013.HDTV.720p.AVC-FreaK.part8.rar
    
    http://www.share-online.biz/dl/JZ08AEHME3
    http://www.share-online.biz/dl/N778AEHM03CJ
    http://www.share-online.biz/dl/AM48AEHM8C
    http://www.share-online.biz/dl/BZ6HAEHMQ6B
    http://www.share-online.biz/dl/8QQDAEHMJI
    http://www.share-online.biz/dl/L4VAAEHMOS4E
    http://www.share-online.biz/dl/7V8HAEHM0RTC
    http://www.share-online.biz/dl/GFEAAEHM9KJ
    
    http://cloudzer.net/file/tjihgcyc/WWE.Monday.Night.Raw.28th.Jan.2013.HDTV.720p.AVC-FreaK.part1.rar
    http://cloudzer.net/file/5rejymrs/WWE.Monday.Night.Raw.28th.Jan.2013.HDTV.720p.AVC-FreaK.part2.rar
    http://cloudzer.net/file/tkg10cej/WWE.Monday.Night.Raw.28th.Jan.2013.HDTV.720p.AVC-FreaK.part3.rar
    http://cloudzer.net/file/e5fferyv/WWE.Monday.Night.Raw.28th.Jan.2013.HDTV.720p.AVC-FreaK.part4.rar
    http://cloudzer.net/file/nu0bdsqr/WWE.Monday.Night.Raw.28th.Jan.2013.HDTV.720p.AVC-FreaK.part5.rar
    http://cloudzer.net/file/kk80c65t/WWE.Monday.Night.Raw.28th.Jan.2013.HDTV.720p.AVC-FreaK.part6.rar
    http://cloudzer.net/file/wg6imbkq/WWE.Monday.Night.Raw.28th.Jan.2013.HDTV.720p.AVC-FreaK.part7.rar
    http://cloudzer.net/file/a7420o7z/WWE.Monday.Night.Raw.28th.Jan.2013.HDTV.720p.AVC-FreaK.part8.rar
    
    http://www.netload.in/dateiuBx71eVDGN/WWE.Monday.Night.Raw.28th.Jan.2013.HDTV.720p.AVC-FreaK.part5.rar.htm
    http://www.netload.in/datei1z9ezIv9aB/WWE.Monday.Night.Raw.28th.Jan.2013.HDTV.720p.AVC-FreaK.part4.rar.htm
    http://www.netload.in/dateiLKtvlfg6Cx/WWE.Monday.Night.Raw.28th.Jan.2013.HDTV.720p.AVC-FreaK.part3.rar.htm
    http://www.netload.in/dateiDAZSWqRAuD/WWE.Monday.Night.Raw.28th.Jan.2013.HDTV.720p.AVC-FreaK.part6.rar.htm
    http://www.netload.in/datei1g3wQLf9Dy/WWE.Monday.Night.Raw.28th.Jan.2013.HDTV.720p.AVC-FreaK.part1.rar.htm
    .

 

 

Posting Permissions

  • You may not post new threads
  • You may not post replies
  • You may not post attachments
  • You may not edit your posts
  •