Results 1 to 1 of 1
  1. #1
    Banned www.desirulez.net
    Join Date
    Oct 2010
    Posts
    2,885

    Wink WWE.Monday.Night.Raw.2013.01.28.720p.HDTV.AVC-FreaK

    Follow us on Social Media





    WWE.Monday.Night.Raw.2013.01.28.720p.HDTV.AVC-FreaK

    Cappers Notes:
    If peeps are wondering why the file size is a bigger
    compared to other releases, I use a higher video bitrate
    and I do not recode the audio to a lesser quality. I think
    the trade off is acceptable when you factor in the speed
    of the release.

    Video
    ID : 1
    Format : AVC
    Format/Info : Advanced Video Codec
    Format profile : [email protected]
    Format settings, CABAC : Yes
    Format settings, ReFrames : 4 frames
    Format settings, GOP : M=3, N=24
    Codec ID : V_MPEG4/ISO/AVC
    Duration : 2h 19mn
    Bit rate mode : Variable
    Bit rate : 5 388 Kbps
    Maximum bit rate : 20.0 Mbps
    Width : 1 280 pixels
    Height : 720 pixels
    Display aspect ratio : 16:9
    Frame rate mode : Constant
    Frame rate : 50.000 fps
    Color space : YUV
    Chroma subsampling : 4:2:0
    Bit depth : 8 bits
    Scan type : Progressive
    Bits/(Pixel*Frame) : 0.117
    Stream size : 5.23 GiB (91%)
    Default : Yes
    Forced : No
    Color primaries : BT.709
    Transfer characteristics : BT.709
    Matrix coefficients : BT.709

    Audio
    ID : 2
    Format : AC-3
    Format/Info : Audio Coding 3
    Mode extension : CM (complete main)
    Format settings, Endianness : Big
    Codec ID : A_AC3
    Duration : 2h 19mn
    Bit rate mode : Constant
    Bit rate : 384 Kbps
    Channel(s) : 2 channels
    Channel positions : Front: L R
    Sampling rate : 48.0 KHz
    Bit depth : 16 bits
    Compression mode : Lossy
    Stream size : 382 MiB (7%)
    Default : Yes
    Forced : No
    Code:
    UPLOADED>TO
    http://ul.to/2s5wwzlz/WWE.Monday.Night.Raw.2013.01.28.720p.HDTV.AVC-FreaK.part1.rar
    http://ul.to/22j6z273/WWE.Monday.Night.Raw.2013.01.28.720p.HDTV.AVC-FreaK.part2.rar
    http://ul.to/2ap49sli/WWE.Monday.Night.Raw.2013.01.28.720p.HDTV.AVC-FreaK.part3.rar
    http://ul.to/yhv14pff/WWE.Monday.Night.Raw.2013.01.28.720p.HDTV.AVC-FreaK.part4.rar
    http://ul.to/bz06v6cr/WWE.Monday.Night.Raw.2013.01.28.720p.HDTV.AVC-FreaK.part5.rar
    http://ul.to/n4n2snl4/WWE.Monday.Night.Raw.2013.01.28.720p.HDTV.AVC-FreaK.part6.rar
    
    RAPIDGATOR
    http://rapidgator.net/file/74522248/WWE.Monday.Night.Raw.2013.01.28.720p.HDTV.AVC-FreaK.part1.rar.html
    http://rapidgator.net/file/74522247/WWE.Monday.Night.Raw.2013.01.28.720p.HDTV.AVC-FreaK.part2.rar.html
    http://rapidgator.net/file/74522240/WWE.Monday.Night.Raw.2013.01.28.720p.HDTV.AVC-FreaK.part3.rar.html
    http://rapidgator.net/file/74522495/WWE.Monday.Night.Raw.2013.01.28.720p.HDTV.AVC-FreaK.part4.rar.html
    http://rapidgator.net/file/74522510/WWE.Monday.Night.Raw.2013.01.28.720p.HDTV.AVC-FreaK.part5.rar.html
    http://rapidgator.net/file/74522469/WWE.Monday.Night.Raw.2013.01.28.720p.HDTV.AVC-FreaK.part6.rar.html
    
    EXTABIT
    http://extabit.com/file/279dih5wf9s09
    http://extabit.com/file/279dih5wf9s21
    http://extabit.com/file/279dih5wf9ijd
    http://extabit.com/file/279dih5wjmho9
    http://extabit.com/file/279dih5wjmr4p
    http://extabit.com/file/279dih5wjmhm1
    
    TURBO
    http://turbobit.net/z3fr5a8brzgi/WWE.Monday.Night.Raw.2013.01.28.720p.HDTV.AVC-FreaK.part1.rar.html
    http://turbobit.net/0wwyalf8ywwy/WWE.Monday.Night.Raw.2013.01.28.720p.HDTV.AVC-FreaK.part2.rar.html
    http://turbobit.net/1wranktrtv4w/WWE.Monday.Night.Raw.2013.01.28.720p.HDTV.AVC-FreaK.part3.rar.html
    http://turbobit.net/lavad3il4ve1/WWE.Monday.Night.Raw.2013.01.28.720p.HDTV.AVC-FreaK.part4.rar.html
    http://turbobit.net/g2t3xlmbx4u5/WWE.Monday.Night.Raw.2013.01.28.720p.HDTV.AVC-FreaK.part5.rar.html
    http://turbobit.net/yxjgzr2pls4o/WWE.Monday.Night.Raw.2013.01.28.720p.HDTV.AVC-FreaK.part6.rar.html
    
    SecureUpload
    http://www.secureupload.eu/mi9dteqe31cj/WWE.Monday.Night.Raw.2013.01.28.720p.HDTV.AVC-FreaK.part1.rar
    http://www.secureupload.eu/1q33zo1w4gzd/WWE.Monday.Night.Raw.2013.01.28.720p.HDTV.AVC-FreaK.part2.rar
    http://www.secureupload.eu/bqmwzglijrvm/WWE.Monday.Night.Raw.2013.01.28.720p.HDTV.AVC-FreaK.part3.rar
    http://www.secureupload.eu/qk7sk4tz2hei/WWE.Monday.Night.Raw.2013.01.28.720p.HDTV.AVC-FreaK.part4.rar
    http://www.secureupload.eu/qdl4dh45us1o/WWE.Monday.Night.Raw.2013.01.28.720p.HDTV.AVC-FreaK.part5.rar
    http://www.secureupload.eu/b80yx4gp0xdu/WWE.Monday.Night.Raw.2013.01.28.720p.HDTV.AVC-FreaK.part6.rar

 

 

Posting Permissions

  • You may not post new threads
  • You may not post replies
  • You may not post attachments
  • You may not edit your posts
  •