Results 1 to 1 of 1
  1. #1
    Hot Member www.desirulez.net
    Join Date
    Feb 2011
    Location
    Bulletproof IP
    Posts
    1,189

    Default Race 2 (2013) - 1/5 DVDScr - XviD - AC3 - ESubs - 900MB - [TDT]

    Follow us on Social Media





    Race 2
    1/5 DVDScr - XviD - AC3 - ESubs - 900MB - TDT
    (2013)





    Code:
    General
    Complete name : Race 2 (2013) - Xvid - DvdScr Rip - AC3 - E-subs -[TDT].avi
    IMDB : http://www.imdb.com/title/tt1375789/
    Format : AVI
    File size : 896 MiB
    Duration : 2h 22mn
    Overall bit rate : 881 Kbps
    Source : DvdSCR @ obaid2k13
    Ripper : KingFisheR [~TDT~].
    
    Video
    
    Codec ID : XVID
    Duration : 2h 22mn
    Bit rate : 744 Kbps
    Width : 688 pixels
    Height : 288 pixels
    Display aspect ratio : 2.40:1
    Frame rate : 23.976 fps
    Scan type : Progressive
    Bits/(Pixel*Frame) : 0.157
    Stream size : 756 MiB (84%)
    
    Audio
    
    Format : AC-3
    Duration : 2h 22mn
    Bit rate mode : Constant
    Bit rate : 128 Kbps
    Channel(s) : 2 channels
    Channel positions : Front: L R
    Sampling rate : 48.0 KHz
    Stream size : 130 MiB (15%)

















    All Credits Goes To KingFisheR @ TDT (Thanks)

    Size: 895.85 MB

    Code:
    http://turbobit.net/mkt746cq2n7a/R2-1-5-DVDScr-XviD-AC3-900MB-TDT.avi.html
    or
    http://hugefiles.net/pvo10anqjhb2
    
    Subtitles:
    http://hugefiles.net/0cnuqfiuqms9

 

 

Posting Permissions

  • You may not post new threads
  • You may not post replies
  • You may not post attachments
  • You may not edit your posts
  •