Results 1 to 2 of 2
  1. #1
    Banned www.desirulez.net
    Join Date
    Oct 2010
    Posts
    2,885

    Wink WWE.Monday.Night.Raw.2013.01.28.HDTV.x264-RTW

    Follow us on Social Media





    WWE.Monday.Night.Raw.2013.01.28.HDTV.x264-RTW





    Format : MPEG-4
    Format profile : Base Media
    Codec ID : isom
    File size : 1.64 GiB
    Duration : 2h 24mn
    Overall bit rate : 1 627 Kbps

    Video #1
    Format : AVC
    Format/Info : Advanced Video Codec
    Format profile : [email protected]
    Format settings, CABAC : Yes
    Format settings, ReFrames : 4 frames
    Codec ID : avc1
    Codec ID/Info : Advanced Video Coding
    Duration : 2h 24mn
    Bit rate mode : Variable
    Bit rate : 1 461 Kbps
    Width : 704 pixels
    Height : 400 pixels
    Display aspect ratio : 16/9
    Frame rate mode : Constant
    Frame rate : 25.000 fps
    Resolution : 24 bits
    Colorimetry : 4:2:0
    Scan type : Progressive
    Bits/(Pixel*Frame) : 0.207
    Stream size : 1.47 GiB (90%)

    Audio #2
    Format : AAC
    Format/Info : Advanced Audio Codec
    Format version : Version 4
    Format profile : LC
    Format settings, SBR : No
    Codec ID : 40
    Duration : 2h 24mn
    Bit rate mode : Variable
    Bit rate : 160 Kbps
    Channel(s) : 2 channels
    Channel positions : L R
    Sampling rate : 48.0 KHz
    Resolution : 16 bits
    Stream size : 165 MiB (10%)
    Code:
    UPLOADED>TO
    http://ul.to/zl3ewcfj/WWE.Monday.Night.RAW.2013.01.28.HDTV.x264-RTW.mp4
    http://ul.to/wsz5iu46/WWE.Monday.Night.RAW.2013.01.28.HDTV.x264-RTW.part1.rar
    http://ul.to/kxkn1v2w/WWE.Monday.Night.RAW.2013.01.28.HDTV.x264-RTW.part2.rar
    
    RAPIDGATOR
    http://rapidgator.net/file/74462852/WWE.Monday.Night.RAW.2013.01.28.HDTV.x264-RTW.part1.rar.html
    http://rapidgator.net/file/74461310/WWE.Monday.Night.RAW.2013.01.28.HDTV.x264-RTW.part2.rar.html
    
    EXTABIT
    http://extabit.com/file/279oj8o3wgoxr
    http://extabit.com/file/279oj8o3wgp1r
    
    TURBO
    http://turbobit.net/aqonzu1l2ink/WWE.Monday.Night.RAW.2013.01.28.HDTV.x264-RTW.part1.rar.html
    http://turbobit.net/xz94b85hkt5i/WWE.Monday.Night.RAW.2013.01.28.HDTV.x264-RTW.part2.rar.html
    
    SecureUpload
    http://www.secureupload.eu/0snc1brs0xrl/WWE.Monday.Night.RAW.2013.01.28.HDTV.x264-RTW.part1.rar
    http://www.secureupload.eu/5yu5wdaxa2am/WWE.Monday.Night.RAW.2013.01.28.HDTV.x264-RTW.part2.rar

  2. #2
    Super Member www.desirulez.net
    Join Date
    Feb 2012
    Posts
    311

    Default

    Thank you

 

 

Posting Permissions

  • You may not post new threads
  • You may not post replies
  • You may not post attachments
  • You may not edit your posts
  •