Results 1 to 1 of 1
  1. #1
    Super Member www.desirulez.net
    Join Date
    Sep 2012
    Location
    Pakistan
    Posts
    354

    Default Race 2 (2013) 480p XViD AC3 2CD Rip [Mr.Anonymous]

    Follow us on Social Media







    Code:
    Format                                   : AVI
    Format/Info                              : Audio Video Interleave
    File size                                : 1.23 GiB
    Duration                                 : 2h 22mn
    Overall bit rate                         : 1 234 Kbps
    
    Video
    ID                                       : 0
    Format                                   : MPEG-4 Visual
    Format profile                           : Advanced [email protected]
    Format settings, BVOP                    : 2
    Format settings, QPel                    : No
    Format settings, GMC                     : No warppoints
    Format settings, Matrix                  : Default (H.263)
    Muxing mode                              : Packed bitstream
    Codec ID                                 : XVID
    Codec ID/Hint                            : XviD
    Duration                                 : 2h 22mn
    Bit rate                                 : 1 100 Kbps
    Width                                    : 806 pixels
    Height                                   : 330 pixels
    Display aspect ratio                     : 2.40:1
    Frame rate                               : 23.976 fps
    Color space                              : YUV
    Chroma subsampling                       : 4:2:0
    Bit depth                                : 8 bits
    Scan type                                : Progressive
    Compression mode                         : Lossy
    Bits/(Pixel*Frame)                       : 0.172
    Stream size                              : 1.09 GiB (89%)
    Writing library                          : XviD 64
    
    Audio
    ID                                       : 1
    Format                                   : AC-3
    Format/Info                              : Audio Coding 3
    Mode extension                           : CM (complete main)
    Format settings, Endianness              : Big
    Codec ID                                 : 2000
    Duration                                 : 2h 22mn
    Bit rate mode                            : Constant
    Bit rate                                 : 128 Kbps
    Channel(s)                               : 2 channels
    Channel positions                        : Front: L R
    Sampling rate                            : 32.0 KHz
    Bit depth                                : 16 bits
    Compression mode                         : Lossy
    Stream size                              : 130 MiB (10%)
    Alignment                                : Aligned on interleaves
    Interleave, duration                     : 96 ms (2.30 video frames)
    Interleave, preload duration             : 192 ms
    Title                                    : audio_new








    DOWNLOAD



    Code:
    http://uploaded.net/file/0oh758iy/Race%202%20%282013%29%20480p%20XViD%20AC3%202CD%20Rip%20%5BMr.Anonymous%5D.avi

    Code:
    http://rapidgator.net/file/74421052/Race_2_(2013)_480p_XViD_AC3_2CD_Rip_[Mr.Anonymous].avi.html

 

 

Posting Permissions

  • You may not post new threads
  • You may not post replies
  • You may not post attachments
  • You may not edit your posts
  •