Results 1 to 1 of 1
  1. #1
    dR Rockers www.desirulez.net
    Join Date
    Aug 2011
    Posts
    5,859

    Cool Race 2 (2013) - Xvid - 1/5 DvdScr Rip - AC3 - E-subs -[TDT]

    Follow us on Social Media












    Code:
    General
    Complete name : Race 2 (2013) - Xvid - DvdScr Rip - AC3 - E-subs -[TDT].avi
    IMDB : Race 2 (2013) - IMDb
    Format : AVI
    File size : 896 MiB
    Duration : 2h 22mn
    Overall bit rate : 881 Kbps
    Source : DvdSCR @ obaid2k13
    Ripper : KingFisheR [~TDT~].
    Quote  Quote:
    Video
    
    Codec ID : XVID
    Duration : 2h 22mn
    Bit rate : 744 Kbps
    Width : 688 pixels
    Height : 288 pixels
    Display aspect ratio : 2.40:1
    Frame rate : 23.976 fps
    Scan type : Progressive
    Bits/(Pixel*Frame) : 0.157
    Stream size : 756 MiB (84%)
    
    Audio
    
    Format : AC-3
    Duration : 2h 22mn
    Bit rate mode : Constant
    Bit rate : 128 Kbps
    Channel(s) : 2 channels
    Channel positions : Front: L R
    Sampling rate : 48.0 KHz
    Stream size : 130 MiB (15%)



















    SINGLE DIRECT FAST LINKS

    Code:
    http://extabit.com/file/2duc51kcnj46u/Race.2.2013.Xvid.DvdScr.Rip.AC3.E-subs.TDT.avi
    http://extabit.com/file/2duc51kcj651i/Race.2.2013.Xvid.DvdScr.Rip.AC3.E-subs.TDT.srt

    Code:
    http://uploaded.net/file/w2081u5i/Race.2.2013.Xvid.DvdScr.Rip.AC3.E-subs.TDT.avi
    http://uploaded.net/file/8ta3zm96/Race.2.2013.Xvid.DvdScr.Rip.AC3.E-subs.TDT.srt
    Code:
    http://lumfile.com/fnmllooa9bci/Race.2.2013.Xvid.DvdScr.Rip.AC3.E-subs.TDT.avi.html
    http://lumfile.com/v97oalv1wlbv/Race.2.2013.Xvid.DvdScr.Rip.AC3.E-subs.TDT.srt.html

 

 

Posting Permissions

  • You may not post new threads
  • You may not post replies
  • You may not post attachments
  • You may not edit your posts
  •