Results 1 to 1 of 1
  1. #1

    Default WWE Royal Rumble 2013.1080i Dual Audio[GR-EN] 16GB

    Follow us on Social Media





    WWE Royal Rumble 2013.1080i Dual Audio[GR-EN] 16GB




    General
    ID : 13 (0xD)
    Complete name : C:\1234\movie\20130128 0200 - Sky Sport HD 2 - Live Wrestling_ PPV_ WWE Royal Rumble.ts
    Format : MPEG-TS
    File size : 16.0 GiB
    Duration : 2h 50mn
    Overall bit rate mode : Variable
    Overall bit rate : 13.4 Mbps

    Video
    ID : 1023 (0x3FF)
    Menu ID : 114 (0x72)
    Format : AVC
    Format/Info : Advanced Video Codec
    Format profile : [email protected]
    Format settings, CABAC : Yes
    Format settings, ReFrames : 3 frames
    Codec ID : 27
    Duration : 2h 50mn
    Bit rate : 12.0 Mbps
    Width : 1 920 pixels
    Height : 1 080 pixels
    Display aspect ratio : 16:9
    Frame rate : 25.000 fps
    Standard : Component
    Color space : YUV
    Chroma subsampling : 4:2:0
    Bit depth : 8 bits
    Scan type : Interlaced
    Scan order : Top Field First
    Bits/(Pixel*Frame) : 0.231
    Stream size : 14.3 GiB (89%)
    Color primaries : BT.709
    Transfer characteristics : BT.709
    Matrix coefficients : BT.709

    Audio #1
    ID : 1027 (0x403)
    Menu ID : 114 (0x72)
    Format : AC-3
    Format/Info : Audio Coding 3
    Mode extension : CM (complete main)
    Format settings, Endianness : Big
    Codec ID : 6
    Duration : 2h 50mn
    Bit rate mode : Constant
    Bit rate : 384 Kbps
    Channel(s) : 6 channels
    Channel positions : Front: L C R, Side: L R, LFE
    Sampling rate : 48.0 KHz
    Bit depth : 16 bits
    Compression mode : Lossy
    Delay relative to video : -817ms
    Stream size : 469 MiB (3%)
    Language : German
    Language, more info : Clean effects

    Audio #2
    ID : 1028 (0x404)
    Menu ID : 114 (0x72)
    Format : AC-3
    Format/Info : Audio Coding 3
    Mode extension : CM (complete main)
    Format settings, Endianness : Big
    Codec ID : 6
    Duration : 2h 50mn
    Bit rate mode : Constant
    Bit rate : 384 Kbps
    Channel(s) : 2 channels
    Channel positions : Front: L R
    Sampling rate : 48.0 KHz
    Bit depth : 16 bits
    Compression mode : Lossy
    Delay relative to video : -720ms
    Stream size : 469 MiB (3%)
    Language : English
    Language, more info : Clean effects

    Text
    ID : 32 (0x20)-100
    Menu ID : 114 (0x72)
    Format : Teletext
    Language : German

    Menu
    ID : 99 (0x63)
    Menu ID : 114 (0x72)
    Duration : 2h 50mn
    List : 32 (0x20) () / 1023 (0x3FF) (AVC) / 1027 (0x403) (AC-3, German) / 1028 (0x404) (AC-3, English)
    Language : / / German / English

    INFO: if you use VLC Please turn Deinterlace to Auto and Select Audio Channel to English AC3 Thx






    RAPIDGATOR
    Code:
    http://rapidgator.net/file/74287847/WWE.Royal.Rumble.2013.1080i.Dual.Audio.NATEHD.part01.rar.html
    http://rapidgator.net/file/74287803/WWE.Royal.Rumble.2013.1080i.Dual.Audio.NATEHD.part02.rar.html
    http://rapidgator.net/file/74287983/WWE.Royal.Rumble.2013.1080i.Dual.Audio.NATEHD.part03.rar.html
    http://rapidgator.net/file/74289911/WWE.Royal.Rumble.2013.1080i.Dual.Audio.NATEHD.part04.rar.html
    http://rapidgator.net/file/74290074/WWE.Royal.Rumble.2013.1080i.Dual.Audio.NATEHD.part05.rar.html
    http://rapidgator.net/file/74294845/WWE.Royal.Rumble.2013.1080i.Dual.Audio.NATEHD.part06.rar.html
    http://rapidgator.net/file/74294439/WWE.Royal.Rumble.2013.1080i.Dual.Audio.NATEHD.part07.rar.html
    http://rapidgator.net/file/74296276/WWE.Royal.Rumble.2013.1080i.Dual.Audio.NATEHD.part08.rar.html
    http://rapidgator.net/file/74329028/WWE.Royal.Rumble.2013.1080i.Dual.Audio.NATEHD.part09.rar.html
    http://rapidgator.net/file/74339220/WWE.Royal.Rumble.2013.1080i.Dual.Audio.NATEHD.part10.rar.html
    http://rapidgator.net/file/74338928/WWE.Royal.Rumble.2013.1080i.Dual.Audio.NATEHD.part11.rar.html
    http://rapidgator.net/file/74329553/WWE.Royal.Rumble.2013.1080i.Dual.Audio.NATEHD.part12.rar.html
    http://rapidgator.net/file/74339048/WWE.Royal.Rumble.2013.1080i.Dual.Audio.NATEHD.part13.rar.html
    http://rapidgator.net/file/74328577/WWE.Royal.Rumble.2013.1080i.Dual.Audio.NATEHD.part14.rar.html
    http://rapidgator.net/file/74328528/WWE.Royal.Rumble.2013.1080i.Dual.Audio.NATEHD.part15.rar.html
    http://rapidgator.net/file/74338675/WWE.Royal.Rumble.2013.1080i.Dual.Audio.NATEHD.part16.rar.html

    UPLOADED>TO
    Code:
    http://ul.to/0knpmx0q/WWE.Royal.Rumble.2013.1080i.Dual.Audio.NATEHD.part01.rar
    http://ul.to/fbl4yntq/WWE.Royal.Rumble.2013.1080i.Dual.Audio.NATEHD.part02.rar
    http://ul.to/c16dqw9v/WWE.Royal.Rumble.2013.1080i.Dual.Audio.NATEHD.part03.rar
    http://ul.to/2vccyybh/WWE.Royal.Rumble.2013.1080i.Dual.Audio.NATEHD.part04.rar
    http://ul.to/0hlni0kj/WWE.Royal.Rumble.2013.1080i.Dual.Audio.NATEHD.part05.rar
    http://ul.to/tfuvzyuj/WWE.Royal.Rumble.2013.1080i.Dual.Audio.NATEHD.part06.rar
    http://ul.to/06af6b5u/WWE.Royal.Rumble.2013.1080i.Dual.Audio.NATEHD.part07.rar
    http://ul.to/ky75i0po/WWE.Royal.Rumble.2013.1080i.Dual.Audio.NATEHD.part08.rar
    http://ul.to/smmh1ikb/WWE.Royal.Rumble.2013.1080i.Dual.Audio.NATEHD.part09.rar
    http://ul.to/p1wlopi8/WWE.Royal.Rumble.2013.1080i.Dual.Audio.NATEHD.part10.rar
    http://ul.to/23kwy0rd/WWE.Royal.Rumble.2013.1080i.Dual.Audio.NATEHD.part11.rar
    http://ul.to/9v6po0al/WWE.Royal.Rumble.2013.1080i.Dual.Audio.NATEHD.part12.rar
    http://ul.to/7ufo6dq5/WWE.Royal.Rumble.2013.1080i.Dual.Audio.NATEHD.part13.rar
    http://ul.to/b26jsim8/WWE.Royal.Rumble.2013.1080i.Dual.Audio.NATEHD.part14.rar
    http://ul.to/3g38wddo/WWE.Royal.Rumble.2013.1080i.Dual.Audio.NATEHD.part15.rar
    http://ul.to/9nv1vfd1/WWE.Royal.Rumble.2013.1080i.Dual.Audio.NATEHD.part16.rar

    .

 

 

Posting Permissions

  • You may not post new threads
  • You may not post replies
  • You may not post attachments
  • You may not edit your posts
  •