Results 1 to 4 of 4
  1. #1
    Banned www.desirulez.net
    Join Date
    Jan 2013
    Posts
    39

    Cool WWE Royal Rumble 2013 -27th January 2013 720 HD Online Watch Online

    Follow us on Social Media







    Watch WWE Royal Rumble 2013 - 01/27/2013 - 27th January 2013 Online | HDTV | Watch Online/ Download *DivX*


    ============================================
    Imp. Note:- Don't post any spoilers in this thread!
    ============================================




    ============================================
    720 HD Links
    ============================================

    Watch Online (Dailymotion) HD/DivX Quality

    WWE Royal Rumble 2013 - 1/27/2013 - 27th January 2013 | *720 HD* | Watch Online Part 01
    WWE Royal Rumble 2013 - 1/27/2013 - 27th January 2013 | *720 HD* | Watch Online Part 02
    WWE Royal Rumble 2013 - 1/27/2013 - 27th January 2013 | *720 HD* | Watch Online Part 03
    WWE Royal Rumble 2013 - 1/27/2013 - 27th January 2013 | *720 HD* | Watch Online Part 04
    WWE Royal Rumble 2013 - 1/27/2013 - 27th January 2013 | *720 HD* | Watch Online Part 05
    WWE Royal Rumble 2013 - 1/27/2013 - 27th January 2013 | *720 HD* | Watch Online Part 06


    ============================================
    Normal Links
    ============================================


    Watch Online (Dailymotion) HD/DivX Quality

    WWE Royal Rumble 2013 - 1/27/2013 - 27th January 2013 | *HD* | Watch Online Part 01
    WWE Royal Rumble 2013 - 1/27/2013 - 27th January 2013 | *HD* | Watch Online Part 02
    WWE Royal Rumble 2013 - 1/27/2013 - 27th January 2013 | *HD* | Watch Online Part 03
    WWE Royal Rumble 2013 - 1/27/2013 - 27th January 2013 | *HD* | Watch Online Part 04
    WWE Royal Rumble 2013 - 1/27/2013 - 27th January 2013 | *HD* | Watch Online Part 05
    WWE Royal Rumble 2013 - 1/27/2013 - 27th January 2013 | *HD* | Watch Online Part 06
    WWE Royal Rumble 2013 - 1/27/2013 - 27th January 2013 | *HD* | Watch Online Part 07
    WWE Royal Rumble 2013 - 1/27/2013 - 27th January 2013 | *HD* | Watch Online Part 08
    WWE Royal Rumble 2013 - 1/27/2013 - 27th January 2013 | *HD* | Watch Online Part 09
    WWE Royal Rumble 2013 - 1/27/2013 - 27th January 2013 | *HD* | Watch Online Part 10

  2. #2
    Hot Member www.desirulez.net
    Join Date
    Nov 2011
    Posts
    4,840

    Default

    this noot 720p don't dl it

  3. #3
    Banned www.desirulez.net
    Join Date
    Jan 2013
    Posts
    39

    Default

    Quote Originally Posted by snaw90 View Post
    this noot 720p don't dl it
    no download links here wait some time dailymotion publishing links

  4. #4
    Banned www.desirulez.net
    Join Date
    Jan 2013
    Posts
    39

    Default

    Quote Originally Posted by snaw90 View Post
    this noot 720p don't dl it
    General
    Complete name : D:\parts\WWE.Royal.Rumble.2013.PPV.720 hd two_clip3.mp4
    Format : MPEG-4
    Format profile : Base Media
    Codec ID : isom
    File size : 934 MiB
    Duration : 25mn 16s
    Overall bit rate mode : Variable
    Overall bit rate : 5 167 Kbps

    Video
    ID : 1
    Format : AVC
    Format/Info : Advanced Video Codec
    Format profile : [email protected]
    Format settings, CABAC : No
    Format settings, ReFrames : 1 frame
    Muxing mode : Container [email protected]
    Codec ID : avc1
    Codec ID/Info : Advanced Video Coding
    Duration : 25mn 16s
    Bit rate : 4 997 Kbps
    Width : 1 280 pixels
    Height : 720 pixels
    Display aspect ratio : 16:9
    Frame rate mode : Constant
    Frame rate : 25.000 fps
    Color space : YUV
    Chroma subsampling : 4:2:0
    Bit depth : 8 bits
    Scan type : Progressive
    Bits/(Pixel*Frame) : 0.217
    Stream size : 903 MiB (97%)

    Audio
    ID : 2
    Format : AAC
    Format/Info : Advanced Audio Codec
    Format profile : LC
    Codec ID : 40
    Duration : 25mn 16s
    Bit rate mode : Variable
    Bit rate : 165 Kbps
    Channel(s) : 2 channels
    Channel positions : Front: L R
    Sampling rate : 48.0 KHz
    Compression mode : Lossy
    Stream size : 29.9 MiB (3%)


    now say kid

 

 

Posting Permissions

  • You may not post new threads
  • You may not post replies
  • You may not post attachments
  • You may not edit your posts
  •