Results 1 to 1 of 1
  1. #1
    Super Member www.desirulez.net
    Join Date
    Sep 2012
    Location
    Pakistan
    Posts
    354

    Default Student Of The Year 2012 BRRip 1080p x264 prince26121991

    Follow us on Social Media







    Code:
    Format                                                  : Matroska
    Format version                                          : Version 2
    File size                               : 1.66 GiB
    Duration                                                : 2h 25mn
    Overall bit rate                                        : 1 627 Kbps
    Encoded date                                            : UTC 2013-01-24 15:07:51
    Writing application                     : mkvmerge v5.8.0 ('No Sleep / Pillow') built on Sep  2 2012 15:37:04
    Writing library                         : libebml v1.2.3 + libmatroska v1.3.0
    
    Video
    ID                                                      : 1
    Format                                                  : AVC
    Format/Info                             : Advanced Video Codec
    Format profile                                          : [email protected]
    Format settings, CABAC                                  : Yes
    Format settings, ReFrames               : 4 frames
    Codec ID                                                : V_MPEG4/ISO/AVC
    Duration                                                : 2h 25mn
    Bit rate                                                : 1 499 Kbps
    Width                                   : 1 920 pixels
    Height                                                  : 816 pixels
    Display aspect ratio                                    : 2.35:1
    Frame rate mode                         : Constant
    Frame rate                                              : 24.000 fps
    Color space                             : YUV
    Chroma subsampling                                      : 4:2:0
    Bit depth                               : 8 bits
    Scan type                               : Progressive
    Bits/(Pixel*Frame)                                      : 0.040
    Stream size                             : 1.50 GiB (90%)
    Writing library                         : x264 core 129 r2230 1cffe9f
    Language                                                : English
    Default                                 : Yes
    Forced                                                  : No
    
    Audio
    ID                                                      : 2
    Format                                                  : MPEG Audio
    Format version                                          : Version 1
    Format profile                                          : Layer 3
    Mode                                                    : Joint stereo
    Mode extension                                          : MS Stereo
    Codec ID                                                : A_MPEG/L3
    Codec ID/Hint                           : MP3
    Duration                                                : 2h 25mn
    Bit rate mode                           : Constant
    Bit rate                                                : 128 Kbps
    Channel(s)                                              : 2 channels
    Sampling rate                           : 48.0 KHz
    Compression mode                                        : Lossy
    Stream size                             : 134 MiB (8%)
    Writing library                         : LAME3.99r
    Encoding settings                       : -m j -V 4 -q 2 -lowpass 17 -b 128
    Default                                 : Yes
    Forced                                                  : No









    DOWNLOAD


    Code:
    http://uploaded.net/file/xm7qrw2e/Student%20Of%20The%20Year%202012%20BRRip%201080p%20x264.mkv

    Code:
    http://rapidgator.net/file/73742403/Student_Of_The_Year_2012_BRRip_1080p_x264.mkv.html

 

 

Posting Permissions

  • You may not post new threads
  • You may not post replies
  • You may not post attachments
  • You may not edit your posts
  •