Results 1 to 1 of 1
  1. #1
    Super Member www.desirulez.net
    Join Date
    Jan 2012
    Posts
    408

    Thumbs up Nirbhay The Fighter (2011) DVDRip [Hindi-Telugu] -=AbdullaH - [Team ExD]

    Follow us on Social Media





    Nirbhay The Fighter (2011) DVDRip [Hindi-Telugu] -=AbdullaH - [Team ExD]







    Code:
    Format                                  : Matroska
    Format version                          : Version 2
    File size                               : 1.20 GiB
    Duration                                : 2h 4mn
    Overall bit rate                        : 1 377 Kbps
    Bit rate                                : 1 157 Kbps
    Width                                   : 720 pixels
    Height                                  : 304 pixels
    Display aspect ratio                    : 2.35:1
    Frame rate mode                         : Constant
    Frame rate                              : 25.000 fps
    
    
    Audio #1
    ID                                      : 2
    Format                                  : MPEG Audio
    Format version                          : Version 1
    Format profile                          : Layer 3
    Muxing mode                             : Header stripping
    Codec ID                                : A_MPEG/L3
    Codec ID/Hint                           : MP3
    Duration                                : 2h 4mn
    Bit rate mode                           : Constant
    Channel(s)                              : 2 channels
    Sampling rate                           : 44.1 KHz
    Compression mode                        : Lossy
    Stream size                             : 85.7 MiB (7%)
    Title                                   : -=AbdullaH-=(Team ExD)
    Language                                : Hindi
    
    
    Audio #2
    ID                                      : 3
    Format                                  : MPEG Audio
    Format version                          : Version 1
    Format profile                          : Layer 3
    Muxing mode                             : Header stripping
    Codec ID                                : A_MPEG/L3
    Codec ID/Hint                           : MP3
    Duration                                : 2h 4mn
    Bit rate mode                           : Constant
    Channel(s)                              : 2 channels
    Sampling rate                           : 44.1 KHz
    Compression mode                        : Lossy
    Stream size                             : 85.7 MiB (7%)
    Title                                   : -=AbdullaH-=(Team ExD)
    Language                                : Telugu











    Code:
    http://uploadblast.com/nax2aejvg6mf.html
    
    http://turbobit.net/peot35qywkqz.html
    
    http://ul.to/jkj0zv95
    Code:
    http://filegag.com/49j496wbr5h6
    http://filegag.com/pdv4yd51wjdi
    Code:
    http://filevice.com/essrrp9vmuc8
    http://filevice.com/ciphf5mptms3
    Code:
    http://ultramegabit.com/file/details/QTxF4r2W7ZY
    http://ultramegabit.com/file/details/XeaUzrVt-Ec

 

 

Posting Permissions

  • You may not post new threads
  • You may not post replies
  • You may not post attachments
  • You may not edit your posts
  •